Ступени цивилизации. История мира / History of the World / Серия: 1-7 из 7 (Нил Роуз / Neil Rawles) [2012, Документальный, DVB]

 
Автор Сообщение

sergej644 ®

Пол:

Стаж: 4 года 11 месяцев

Сообщений: 6046

Откуда: Soviet Union



Награды: Нет

Торрент-статистика

Создавать темы 02-Окт-2014 19:38

[Цитировать]

--Ступени цивилизации. История мира / History of the World

Год выпуска: 2012
Страна: Великобритания
Жанр: Документальный
Продолжительность: 7x ~00:51:00
Перевод: профессиональный двухголосый (ГТРК Культура)
Русские субтитры: нет
Режиссер: Нил Роуз / Neil Rawles-
Эндрю Марр (Andrew Marr) отправляется в невероятное путешествие по 70 000 летней истории человека . Использование реконструкции событий, документальных съемок по всему миру и передовой компьютерной графики, он раскрывает решающие моменты, которые повлияли на мир - в котором мы живем сегодня ...

Описание серий

1 Серия. Выживание. Начало времен / Survival
В ходе эволюции, в течение тысяч лет, человечество приспосабливалось к условиям ледникового периода и климатическим изменениям. Наводнения и извержения вулканов постоянно угрожали людям гибелью. Специалисты полагают, что население планеты уменьшалось до десяти тысяч человек. Но те, кто выжил, стали сильнее, умнее и организованнее.
2 Серия. Противостояния. Первые империи / Age of Empire
Ближний восток опустошали завоеватели, и страшные войны вспыхивали повсюду, от Китая до Средиземноморья. Но хаос и насилие не остановили историю развития человечества. На месте руин вырастали новые идеи и понимание того, как нужно управлять государством. Это была первая эпоха империй и прогресса, который заложил основы современного мира.
3 Серия. Слово и меч. У истоков мировых религий / The Word and the Sword
Тысячи лет императоры и цари обладали неограниченной властью над жизнью и смертью. Одни считали себя богами на земле. Другие считали себя даже превыше богов. Но, благодаря мужеству, стойкости и вере, в мире укрепились новые духовные учения. Зарождение трех мировых религий: христианства, буддизма и ислама - важная веха в истории человечества.
4 Серия. От мрака к свету. Эра завоеваний / Into the Light
Европу разоряли язычники, Азию - кочевники. Ислам сталкивался с христианством. Север встречался с Югом, а Восток с Западом. И каналы обмена товарами и знаниями начинали соединять культуры, столетиями разделенные подозрительностью и войнами.
5 Серия. Разбойный век. Мятежное Средневековье / Age of Plunder
XVI век был эпохой великих открытий и путешествий. Европейцы пускались в плавание к неведомым землям. Одержимые одной целью - разбогатеть, странники следовали по маршрутам туда, где есть золото, шелк и другие богатства.
6 Серия. Революционный прорыв. Зарождение капитализма / Revolution
Дух революции распространялся по всему миру. Новые идеи о правах личности и свободе мысли порождали великие научные открытия, новые формы правления и моральные ценности. Эпоха зарождения капитализма - неотъемлемая часть мировой истории.
7 Серия. Навстречу прогрессу. Индустриальный бум / Age of Industry
От Америки до России, от Европы до Дальнего Востока промышленная революция изменила вековой уклад жизни людей, стояла у истоков современного мира, оставив позади аграрное прошлое. С помощью машин люди смогли производить больше, путешествовать дальше и богатеть быстрее, чем когда-либо ранее. Но из-за индустриализации возникнет конкурентная борьба за рынки и ресурсы, что станет причиной кровопролитной войны.
Качество видео: DVB
Формат видео: MPEG-PS
Видео: MPEG2 Video, 720x576 (4:3), 25 fps, 3100 kbps
Аудио: MPEG Audiо, 2 сh, 48 kHz, 192 kbps
Транcляция спутникового канала:

MediaInfo

1 серия

D:\DOC\История мира_(2012)_\1с. История мира. Выживание. Начало времен. (2012)_DVB by SLuMeP.mpg
General
Complete name : D:\DOC\История мира_(2012)_[RUTRACKER.ORG]\1с. История мира. Выживание. Начало времен. (2012)_DVB by SLuMeP.mpg
Format : MPEG-PS
File size : 1.19 GiB
Duration : 51mn 30s
Overall bit rate mode : Variable
Overall bit rate : 3 304 Kbps
Writing library : (c) 1998-2010 Womble Multimedia, Inc. / MPEG Video Wizard DVD 5.0.0.114 (01/2010) / Apr 20 2010
Video #224
ID : 224 (0xE0)
Format : MPEG Video
Format version : Version 2
Format profile : Main@Main
Format settings, BVOP : Yes
Format settings, Matrix : Custom
Format settings, GOP : M=3, N=36
Duration : 51mn 30s
Bit rate mode : Variable
Bit rate : 3 046 Kbps
Maximum bit rate : 15.0 Mbps
Width : 720 pixels
Height : 576 pixels
Display aspect ratio : 4:3
Frame rate : 25.000 fps
Standard : PAL
Color space : YUV
Chroma subsampling : 4:2:0
Bit depth : 8 bits
Scan type : Interlaced
Scan order : Top Field First
Compression mode : Lossy
Bits/(Pixel*Frame) : 0.294
Stream size : 1.10 GiB (92%)
Writing library : (c) 1998-2010 Womble Multimedia, Inc. / MPEG Video Wizard DVD 5.0.0.114 (01/2010) / Apr 20 2010
Audio #192
ID : 192 (0xC0)
Format : MPEG Audio
Format version : Version 1
Format profile : Layer 2
Duration : 51mn 30s
Bit rate mode : Constant
Bit rate : 192 Kbps
Channel(s) : 2 channels
Sampling rate : 48.0 KHz
Compression mode : Lossy
Delay relative to video : -80ms
Stream size : 70.7 MiB (6%)

2 серия

D:\DOC\История мира_(2012)_\2с. История мира. Противостояния. Первые империи. (2012)_DVB by SLuMeP.mpg
General
Complete name : D:\DOC\История мира_(2012)_[RUTRACKER.ORG]\2с. История мира. Противостояния. Первые империи. (2012)_DVB by SLuMeP.mpg
Format : MPEG-PS
File size : 1.21 GiB
Duration : 49mn 33s
Overall bit rate mode : Variable
Overall bit rate : 3 481 Kbps
Writing library : (c) 1998-2010 Womble Multimedia, Inc. / MPEG Video Wizard DVD 5.0.0.114 (01/2010) / Apr 20 2010
Video #224
ID : 224 (0xE0)
Format : MPEG Video
Format version : Version 2
Format profile : Main@Main
Format settings, BVOP : Yes
Format settings, Matrix : Custom
Format settings, GOP : M=3, N=36
Duration : 49mn 33s
Bit rate mode : Variable
Bit rate : 3 220 Kbps
Maximum bit rate : 15.0 Mbps
Width : 720 pixels
Height : 576 pixels
Display aspect ratio : 4:3
Frame rate : 25.000 fps
Standard : PAL
Color space : YUV
Chroma subsampling : 4:2:0
Bit depth : 8 bits
Scan type : Interlaced
Scan order : Top Field First
Compression mode : Lossy
Bits/(Pixel*Frame) : 0.311
Stream size : 1.11 GiB (92%)
Writing library : (c) 1998-2010 Womble Multimedia, Inc. / MPEG Video Wizard DVD 5.0.0.114 (01/2010) / Apr 20 2010
Audio #192
ID : 192 (0xC0)
Format : MPEG Audio
Format version : Version 1
Format profile : Layer 2
Duration : 49mn 33s
Bit rate mode : Constant
Bit rate : 192 Kbps
Channel(s) : 2 channels
Sampling rate : 48.0 KHz
Compression mode : Lossy
Delay relative to video : -80ms
Stream size : 68.1 MiB (6%)

3 серия

D:\DOC\История мира_(2012)_\3с. История мира. Слово и меч. У истоков мировых религий. (2012)_DVB by SLuMeP.mpg
General
Complete name : D:\DOC\История мира_(2012)_[RUTRACKER.ORG]\3с. История мира. Слово и меч. У истоков мировых религий. (2012)_DVB by SLuMeP.mpg
Format : MPEG-PS
File size : 1.31 GiB
Duration : 50mn 49s
Overall bit rate mode : Variable
Overall bit rate : 3 702 Kbps
Writing library : (c) 1998-2010 Womble Multimedia, Inc. / MPEG Video Wizard DVD 5.0.0.114 (01/2010) / Apr 20 2010
Video #224
ID : 224 (0xE0)
Format : MPEG Video
Format version : Version 2
Format profile : Main@Main
Format settings, BVOP : Yes
Format settings, Matrix : Custom
Duration : 50mn 49s
Bit rate mode : Variable
Bit rate : 3 436 Kbps
Maximum bit rate : 15.0 Mbps
Width : 720 pixels
Height : 576 pixels
Display aspect ratio : 4:3
Frame rate : 25.000 fps
Standard : PAL
Color space : YUV
Chroma subsampling : 4:2:0
Bit depth : 8 bits
Scan type : Interlaced
Scan order : Top Field First
Compression mode : Lossy
Bits/(Pixel*Frame) : 0.331
Stream size : 1.22 GiB (93%)
Writing library : (c) 1998-2010 Womble Multimedia, Inc. / MPEG Video Wizard DVD 5.0.0.114 (01/2010) / Apr 20 2010
Audio #192
ID : 192 (0xC0)
Format : MPEG Audio
Format version : Version 1
Format profile : Layer 2
Duration : 50mn 49s
Bit rate mode : Constant
Bit rate : 192 Kbps
Channel(s) : 2 channels
Sampling rate : 48.0 KHz
Compression mode : Lossy
Delay relative to video : -40ms
Stream size : 69.8 MiB (5%)

4 серия

D:\DOC\История мира_(2012)_\4с. История мира. От мрака к свету. Эра завоеваний. (2012)_DVB by SLuMeP.mpg
General
Complete name : D:\DOC\История мира_(2012)_[RUTRACKER.ORG]\4с. История мира. От мрака к свету. Эра завоеваний. (2012)_DVB by SLuMeP.mpg
Format : MPEG-PS
File size : 1.27 GiB
Duration : 51mn 59s
Overall bit rate mode : Variable
Overall bit rate : 3 488 Kbps
Writing library : (c) 1998-2010 Womble Multimedia, Inc. / MPEG Video Wizard DVD 5.0.0.114 (01/2010) / Apr 20 2010
Video #224
ID : 224 (0xE0)
Format : MPEG Video
Format version : Version 2
Format profile : Main@Main
Format settings, BVOP : Yes
Format settings, Matrix : Custom
Duration : 51mn 59s
Bit rate mode : Variable
Bit rate : 3 226 Kbps
Maximum bit rate : 15.0 Mbps
Width : 720 pixels
Height : 576 pixels
Display aspect ratio : 4:3
Frame rate : 25.000 fps
Standard : PAL
Color space : YUV
Chroma subsampling : 4:2:0
Bit depth : 8 bits
Scan type : Interlaced
Scan order : Top Field First
Compression mode : Lossy
Bits/(Pixel*Frame) : 0.311
Stream size : 1.17 GiB (93%)
Writing library : (c) 1998-2010 Womble Multimedia, Inc. / MPEG Video Wizard DVD 5.0.0.114 (01/2010) / Apr 20 2010
Audio #192
ID : 192 (0xC0)
Format : MPEG Audio
Format version : Version 1
Format profile : Layer 2
Duration : 51mn 59s
Bit rate mode : Constant
Bit rate : 192 Kbps
Channel(s) : 2 channels
Sampling rate : 48.0 KHz
Compression mode : Lossy
Stream size : 71.4 MiB (6%)

5 серия

D:\DOC\История мира_(2012)_\5с. История мира. Разбойный век. Мятежное Средневековье. (2012)_DVB by SLuMeP.mpg
General
Complete name : D:\DOC\История мира_(2012)_[RUTRACKER.ORG]\5с. История мира. Разбойный век. Мятежное Средневековье. (2012)_DVB by SLuMeP.mpg
Format : MPEG-PS
File size : 1.32 GiB
Duration : 49mn 46s
Overall bit rate mode : Variable
Overall bit rate : 3 782 Kbps
Writing library : (c) 1998-2010 Womble Multimedia, Inc. / MPEG Video Wizard DVD 5.0.0.114 (01/2010) / Apr 20 2010
Video #224
ID : 224 (0xE0)
Format : MPEG Video
Format version : Version 2
Format profile : Main@Main
Format settings, BVOP : Yes
Format settings, Matrix : Custom
Duration : 49mn 46s
Bit rate mode : Variable
Bit rate : 3 515 Kbps
Maximum bit rate : 15.0 Mbps
Width : 720 pixels
Height : 576 pixels
Display aspect ratio : 4:3
Frame rate : 25.000 fps
Standard : PAL
Color space : YUV
Chroma subsampling : 4:2:0
Bit depth : 8 bits
Scan type : Interlaced
Scan order : Top Field First
Compression mode : Lossy
Bits/(Pixel*Frame) : 0.339
Stream size : 1.22 GiB (93%)
Writing library : (c) 1998-2010 Womble Multimedia, Inc. / MPEG Video Wizard DVD 5.0.0.114 (01/2010) / Apr 20 2010
Audio #192
ID : 192 (0xC0)
Format : MPEG Audio
Format version : Version 1
Format profile : Layer 2
Duration : 49mn 46s
Bit rate mode : Constant
Bit rate : 192 Kbps
Channel(s) : 2 channels
Sampling rate : 48.0 KHz
Compression mode : Lossy
Delay relative to video : -40ms
Stream size : 68.4 MiB (5%)

6 серия

D:\DOC\История мира_(2012)_\6с. История мира. Революционный прорыв. Зарождение капитализма. (2012)_DVB by SLuMeP.mpg
General
Complete name : D:\DOC\История мира_(2012)_[RUTRACKER.ORG]\6с. История мира. Революционный прорыв. Зарождение капитализма. (2012)_DVB by SLuMeP.mpg
Format : MPEG-PS
File size : 1.25 GiB
Duration : 49mn 52s
Overall bit rate mode : Variable
Overall bit rate : 3 581 Kbps
Video #224
ID : 224 (0xE0)
Format : MPEG Video
Format version : Version 2
Format profile : Main@Main
Format settings, BVOP : Yes
Format settings, Matrix : Custom
Duration : 49mn 52s
Bit rate mode : Variable
Bit rate : 3 318 Kbps
Maximum bit rate : 15.0 Mbps
Width : 720 pixels
Height : 576 pixels
Display aspect ratio : 4:3
Frame rate : 25.000 fps
Standard : PAL
Color space : YUV
Chroma subsampling : 4:2:0
Bit depth : 8 bits
Scan type : Interlaced
Scan order : Top Field First
Compression mode : Lossy
Bits/(Pixel*Frame) : 0.320
Stream size : 1.16 GiB (93%)
Audio #192
ID : 192 (0xC0)
Format : MPEG Audio
Format version : Version 1
Format profile : Layer 2
Duration : 49mn 52s
Bit rate mode : Constant
Bit rate : 192 Kbps
Channel(s) : 2 channels
Sampling rate : 48.0 KHz
Compression mode : Lossy
Stream size : 68.5 MiB (5%)

7 серия

D:\DOC\История мира_(2012)_\7с. История мира. Навстречу прогрессу. Индустриальный бум. (2012)_DVB by SLuMeP.mpg
General
Complete name : D:\DOC\История мира_(2012)_[RUTRACKER.ORG]\7с. История мира. Навстречу прогрессу. Индустриальный бум. (2012)_DVB by SLuMeP.mpg
Format : MPEG-PS
File size : 1.26 GiB
Duration : 46mn 50s
Overall bit rate mode : Variable
Overall bit rate : 3 837 Kbps
Video #224
ID : 224 (0xE0)
Format : MPEG Video
Format version : Version 2
Format profile : Main@Main
Format settings, BVOP : Yes
Format settings, Matrix : Custom
Format settings, GOP : M=2, N=36
Duration : 46mn 50s
Bit rate mode : Variable
Bit rate : 3 568 Kbps
Maximum bit rate : 15.0 Mbps
Width : 720 pixels
Height : 576 pixels
Display aspect ratio : 4:3
Frame rate : 25.000 fps
Standard : PAL
Color space : YUV
Chroma subsampling : 4:2:0
Bit depth : 8 bits
Scan type : Interlaced
Scan order : Top Field First
Compression mode : Lossy
Bits/(Pixel*Frame) : 0.344
Stream size : 1.17 GiB (93%)
Audio #192
ID : 192 (0xC0)
Format : MPEG Audio
Format version : Version 1
Format profile : Layer 2
Duration : 46mn 50s
Bit rate mode : Constant
Bit rate : 192 Kbps
Channel(s) : 2 channels
Sampling rate : 48.0 KHz
Compression mode : Lossy
Stream size : 64.3 MiB (5%)
- --
[Профиль] [ЛС]
Показать сообщения:    

Текущее время: Сегодня 09:10

Часовой пояс: GMT



Вы не можете начинать темы
Вы не можете отвечать на сообщения
Вы не можете редактировать свои сообщения
Вы не можете удалять свои сообщения
Вы не можете голосовать в опросах
Вы не можете прикреплять файлы к сообщениям
Вы не можете скачивать файлы