Студия 54 / Studio 54 (1998) BDRemux 1080p от ExKinoRay | P

 
Автор Сообщение

Russian Mafia ®

Пол:

Стаж: 1 год 8 месяцев

Сообщений: 4260



Награды: 10 (Подробнее)

Top Releaser 3 (Количество: 1) Mega Seeder 1 (Количество: 1) Top Releaser 5 (Количество: 1)
Торрент-статистика

Создавать темы 09-Апр-2016 16:30

[Цитировать]

Информация о фильме
Название: Студия 54
Оригинальное название: 54 (Studio 54)
Год выпуска: 1998
Жанр: Драма
Выпущено: США, Dollface, FilmColony, Miramax Films, Redeemable Features
Режиссер: Марк Кристофер
В ролях: Райан Филипп, Сальма Хайек, Нив Кэмпбелл, Майк Майерс, Села Уорд, Брекин Мейер, Шерри Стрингфилд, Эллен Альбертини Дау, Камерон Мэттисон, Ноам Дженкинс, Фредерик Ван Дер Вал, Лорен Хаттон
О фильме: «Студия 54» была самым популярным клубом Нью-Йорка. Случайно попасть туда было невозможно. Но оказавшись однажды, ты хотел остаться навсегда. Это история о знаменитом вертепе и его людях. О простом парне, чудом оказавшемся здесь. О наркотиках и беспорядочном сексе. О попытках заставить мечты сбыться любой ценой. Об оборотной стороне славы. О любви и разочарованиях. А также о последствиях всего этого.

Файл
Качество: Blu-Ray Remux (1080p)
Видео: MPEG-4 AVC, 24733 Кбит/с, 1920x1080, 23.976 кадр/c
Аудио: Русский (AC3, 1 ch, 224 Кбит/с), (AC3, 6 ch, 640 Кбит/с), (DTS-HD MA, 6 ch, 2358 Кбит/с), английский (DTS-HD MA, 6 ch, 2354 Кбит/с)
Размер: 21.22 ГБ
Продолжительность: 01:40:13
Перевод: Профессиональный многоголосый
Субтитры: Русские, английские
За исходник, большое спасибо nik385 & BLUEBIRD
За исходники русских аудио-дорожек - спасибо: Pyha, Bloodymetall, dsk71.
Сохранены оригинальные чаптеры как на Blu-Ray.
-------------------------------------------------------------------------
Аудио #1: Русский (AC3, 6 ch, 640 Кбит/с) - Профессиональный многоголосый
Аудио #2: Русский (AC3, 1 ch, 224 Кбит/с) - Профессиональный многоголосый (РТР)
Аудио #3: Русский (DTS-HD МА, 6 ch, 2358 Кбит/c) - Профессиональный многоголосый

Инфо-файл

Общее
Уникальный идентификатор : 206860338552764546319615355201832751070 (0x9B9FDA1ECD0A76B9993C846F5ACA0FDE)
Полное имя : D:ЗагрузкиStudija.54.1998.BDRemux.1080p.ExKinoRay.mkv
Формат : Matroska
Версия формата : Version 2
Размер файла : 21,2 Гбайт
Продолжительность : 1 ч. 40 м.
Режим общего битрейта : Переменный
Общий поток : 30,3 Мбит/сек
Название фильма : Студия 54.1998.Сборка: ollan
Дата кодирования : UTC 2016-04-09 15:37:55
Программа кодирования : mkvmerge v5.6.0 ('Kenya Kane') built on May 27 2012 16:44:04
Библиотека кодирования : libebml v1.2.3 + libmatroska v1.3.0
Attachements : Cover - Studio.54.png
Видео
Идентификатор : 1
Формат : AVC
Формат/Информация : Advanced Video Codec
Профиль формата : High@L4.1
Параметр CABAC формата : Да
Параметр ReFrames формата : 4 кадра
Идентификатор кодека : V_MPEG4/ISO/AVC
Продолжительность : 1 ч. 40 м.
Вид битрейта : Переменный
Максимальный битрейт : 35,0 Мбит/сек
Ширина : 1920 пикселей
Высота : 1080 пикселей
Соотношение сторон : 16:9
Режим частоты кадров : Постоянный
Частота кадров : 23,976 (24000/1001) кадра/сек
Стандарт вещания : NTSC
Цветовое пространство : YUV
Субдискретизация насыщенности : 4:2:0
Битовая глубина : 8 бит
Тип развёртки : Прогрессивная
Default : Да
Forced : Нет
Цветовой диапазон : Limited
Основные цвета : BT.709
Характеристики трансфера : BT.709
Коэффициенты матрицы : BT.709
Аудио #1
Идентификатор : 2
Формат : AC-3
Формат/Информация : Audio Coding 3
Расширение режима : CM (complete main)
Параметр Endianness формата : Big
Идентификатор кодека : A_AC3
Продолжительность : 1 ч. 40 м.
Вид битрейта : Постоянный
Битрейт : 640 Кбит/сек
Каналы : 6 каналов
Расположение каналов : Front: L C R, Side: L R, LFE
Частота : 48,0 КГц
Частота кадров : 31,250 кадров/сек (1536 spf)
Метод сжатия : С потерями
Размер потока : 459 Мбайт (2%)
Заголовок : Профессиональный многоголосый
Язык : Russian
Default : Да
Forced : Нет
Аудио #2
Идентификатор : 3
Формат : AC-3
Формат/Информация : Audio Coding 3
Расширение режима : CM (complete main)
Параметр Endianness формата : Big
Идентификатор кодека : A_AC3
Продолжительность : 1 ч. 40 м.
Вид битрейта : Постоянный
Битрейт : 224 Кбит/сек
Каналы : 1 канал
Расположение каналов : Front: C
Частота : 48,0 КГц
Частота кадров : 31,250 кадров/сек (1536 spf)
Метод сжатия : С потерями
Размер потока : 161 Мбайт (1%)
Заголовок : Профессиональный многоголосый (РТР)
Язык : Russian
Default : Нет
Forced : Нет
Аудио #3
Идентификатор : 4
Формат : DTS
Формат/Информация : Digital Theater Systems
Профиль формата : MA / Core
Режим : 16
Параметр Endianness формата : Big
Идентификатор кодека : A_DTS
Продолжительность : 1 ч. 40 м.
Вид битрейта : Переменный / Постоянный
Битрейт : Неизвестно / 1509 Кбит/сек
Каналы : 6 каналов
Расположение каналов : Front: L C R, Side: L R, LFE
Частота : 48,0 КГц
Частота кадров : 93,750 кадра/сек (512 spf)
Битовая глубина : 16 бит
Метод сжатия : Без потерь / Lossy
Заголовок : Профессиональный многоголосый
Язык : Russian
Default : Нет
Forced : Нет
Аудио #4
Идентификатор : 5
Формат : DTS
Формат/Информация : Digital Theater Systems
Профиль формата : MA / Core
Режим : 16
Параметр Endianness формата : Big
Идентификатор кодека : A_DTS
Продолжительность : 1 ч. 40 м.
Вид битрейта : Переменный / Постоянный
Битрейт : Неизвестно / 1509 Кбит/сек
Каналы : 6 каналов
Расположение каналов : Front: L C R, Side: L R, LFE
Частота : 48,0 КГц
Частота кадров : 93,750 кадра/сек (512 spf)
Битовая глубина : 16 бит
Метод сжатия : Без потерь / Lossy
Язык : English
Default : Нет
Forced : Нет
Меню
00:00:00.000 : en:Chapter 01
00:03:12.942 : en:Chapter 02
00:07:21.023 : en:Chapter 03
00:13:49.411 : en:Chapter 04
00:21:15.399 : en:Chapter 05
00:28:12.690 : en:Chapter 06
00:36:36.194 : en:Chapter 07
00:44:49.687 : en:Chapter 08
00:50:03.625 : en:Chapter 09
00:56:47.779 : en:Chapter 10
01:03:12.288 : en:Chapter 11
01:08:15.800 : en:Chapter 12
01:11:16.855 : en:Chapter 13
01:16:34.673 : en:Chapter 14
01:21:27.716 : en:Chapter 15
01:27:05.762 : en:Chapter 16
01:40:12.923 : en:Chapter 17

Скриншоты



Релиз от: Сборка:
[Профиль] [ЛС]
Кто просматривает тему:

Форум Тема Автор Размер
Фильмы 2014 года 13-й район: Кирпичные особняки / Brick Mansions (Камиль Деламарр / Camille Delamarre) [2014, Франция, Канада, боевик, криминал, BDRip, 720p] Dub (Студия "CineLab SoundMix") sergej644 4.85 GB
Программы [Разное] PicsArt- фотостудия [редактор] [Android 2.3+, RUS] TorrentFilm 33 MB
Фильмы 2011 года Бандиты / Бродяги / Truands (Фредерик Шёндёрфер / Frédéric Schoendoerffer) [2006, Франция, триллер, криминал, DVDRip] MVO (Автор студия) + Original Fre TorrentFilm 2.18 GB
Фильмы 2010 года Группа "Ранэвэйс" / Ранэвэйс / The Runaways (Флория Сигизмонди / Floria Sigismondi) [2010, США, драма, биография, музыка, HDRip] MVO (ТВ3) + DVO (студия NLS) + Original Eng TorrentFilm 1.46 GB
Разные пользовательские программы Дизайн Студия v.6.2014 by Leha342 [Ru] (Авторская раздача) sergej644 3.25 GB
Графические редакторы Домашняя Фотостудия 8.00 RePack by KaktusTV [2015,Ru] TorrentFilm 69 MB
Графические редакторы Домашняя Фотостудия 8.15 Portable [2015, RUS] TorrentFilm 140 MB
Графические редакторы Домашняя Фотостудия v9.0 Repack by KaktusTV [2016,Rus] TorrentFilm 70 MB
Показать сообщения:    

Текущее время: Сегодня 14:08

Часовой пояс: GMT



Вы не можете начинать темы
Вы не можете отвечать на сообщения
Вы не можете редактировать свои сообщения
Вы не можете удалять свои сообщения
Вы не можете голосовать в опросах
Вы не можете прикреплять файлы к сообщениям
Вы не можете скачивать файлы