Студент со связями / The Preppie Connection (2015) WEB-DL 720p | L2

 
Автор Сообщение

достали все ®

Пол:

Стаж: 1 год 8 месяцев

Сообщений: 6600



Награды: 12 (Подробнее)

Top Releaser 2 (Количество: 1) Mega Releaser 1 (Количество: 1) Mega Seeder 5 (Количество: 1)
Торрент-статистика

Создавать темы 09-Апр-2016 08:32

[Цитировать]

Информация о фильме
Название: Студент со связями
Оригинальное название: The Preppie Connection
Год выхода: 2015
Жанр: драма, криминал
Режиссер: Джозеф Кастело
В ролях: Люси Фрай, Сэмюэл Пейдж, Томас Манн, Эми Харгривз, Логан Хаффман, Билл Сейдж, Джессика Рот, Марко Кака, Райан Уорд, Хемки Мадера
О фильме: Учащийся частной школы использует свои связи для создания сети распространения наркотиков.

Выпущено: Пуэрто Рико, США / Coalition Films, Mensch Productions, Parallell Cinéma, Relic Pictures
Продолжительность: 01:36:55
Озвучивание: Любительское (двухголосое)
Файл
Формат: MKV
Качество: WEB-DL 720p
Видео: MPEG-4 AVC, 3915 kb/s, 1280x532
Аудио: Russian: AC3, 192 kb/s (2 ch) / English: AC3, 384 kb/s (6 ch)

MI

Format : Matroska
Format version : Version 2
File size : 3.10 GiB
Duration : 1h 36mn
Overall bit rate : 4 583 Kbps
Encoded date : UTC 2016-04-09 06:33:05
Writing application : mkvmerge v7.8.0 ('River Man') 32bit built on Apr 3 2015 12:11:22
Writing library : libebml v1.3.1 + libmatroska v1.4.2
Video
ID : 1
Format : AVC
Format/Info : Advanced Video Codec
Format profile : Main@L3.1
Format settings, CABAC : No
Format settings, ReFrames : 2 frames
Codec ID : V_MPEG4/ISO/AVC
Duration : 1h 36mn
Bit rate : 3 915 Kbps
Width : 1 280 pixels
Height : 532 pixels
Display aspect ratio : 2.40:1
Frame rate mode : Constant
Frame rate : 23.976 fps
Color space : YUV
Chroma subsampling : 4:2:0
Bit depth : 8 bits
Scan type : Progressive
Bits/(Pixel*Frame) : 0.240
Stream size : 2.65 GiB (85%)
Language : English
Default : Yes
Forced : No
Color range : Limited
Color primaries : BT.709
Transfer characteristics : BT.709
Matrix coefficients : BT.709
Audio #1
ID : 2
Format : AC-3
Format/Info : Audio Coding 3
Mode extension : CM (complete main)
Format settings, Endianness : Big
Codec ID : A_AC3
Duration : 1h 36mn
Bit rate mode : Constant
Bit rate : 192 Kbps
Channel(s) : 2 channels
Channel positions : Front: L R
Sampling rate : 48.0 KHz
Bit depth : 16 bits
Compression mode : Lossy
Stream size : 133 MiB (4%)
Language : Russian
Default : Yes
Forced : No
Audio #2
ID : 3
Format : AC-3
Format/Info : Audio Coding 3
Mode extension : CM (complete main)
Format settings, Endianness : Big
Codec ID : A_AC3
Duration : 1h 36mn
Bit rate mode : Constant
Bit rate : 384 Kbps
Channel(s) : 6 channels
Channel positions : Front: L C R, Side: L R, LFE
Sampling rate : 48.0 KHz
Bit depth : 16 bits
Compression mode : Lossy
Stream size : 266 MiB (8%)
Language : English
Default : No
Forced : No
Menu
00:00:00.000 : en:1
00:12:21.000 : en:2
00:22:29.000 : en:3
00:31:59.000 : en:4
00:46:03.000 : en:5
01:00:23.000 : en:6
01:10:02.000 : en:7
01:22:00.000 : en:8
01:30:45.000 : en:9

Скриншоты



[Профиль] [ЛС]
Показать сообщения:    

Текущее время: Сегодня 07:11

Часовой пояс: GMT



Вы не можете начинать темы
Вы не можете отвечать на сообщения
Вы не можете редактировать свои сообщения
Вы не можете удалять свои сообщения
Вы не можете голосовать в опросах
Вы не можете прикреплять файлы к сообщениям
Вы не можете скачивать файлы