Стряпуха (Эдмонд Кеосаян) [1965, комедия, HDTVRip-AVC]

 
Автор Сообщение

reversefile ®

Пол:

Стаж: 4 года 5 месяцев

Сообщений: 842

Откуда: ReverseFile.org



Награды: Нет

Торрент-статистика

Создавать темы 11-Авг-2014 06:20

[Цитировать]

Стряпуха- Жанр: комедия
Год выпуска: 1965
Продолжительность: 01:06:49-Режиссёр: Эдмонд Кеосаян-В ролях:
Светлана Светличная, Людмила Хитяева, Инна Чурикова, Константин Сорокин, Георгий Юматов, Иван Савкин, Людмила Марченко, Людмила Карауш, Владимир Высоцкий, Нина Никитина, Валентина Березуцкая, Григорий Михайлов, Зоя Фёдорова, Сергей Филиппов, Павел Шпрингфельд, Эдуард Абалов, Валерий Носик, Владимир Колокольцев, Владимир Сошальский, Владимир Дорофеев, Вера Бурлакова
Описание:
Однажды комбайнер Степан Казанец получил половником по голове от Павлины Хуторной. После скандальной истории, ставшей известной на весь район, красивая казачка уехала из станицы и устроилась на полевом стане стряпухой. Степан отправляется следом...-Сэмпл | Кинопоиск-Качество видео: HDTVRip-AVC, благодарю Каддафи за исходник.
Формат видео: MKV
Видео: x264 (High@L4.1); 940x528, Display aspect ratio 16:9, 25.000 fps, 2921 Kbps
Аудио: AC-3; 16 bit 48 Khz; 2.0 ch 192 Kbps; CBR

MediaInfo


-

x264 log

avs [info]: 940x528p 1:1 @ 25/1 fps (cfr)
x264 [info]: using SAR=1/1
x264 [info]: using cpu capabilities: MMX2 SSE2Fast SSSE3 SSE4.2
x264 [info]: profile High, level 4.1
x264 [info]: frame I:541 Avg QP:18.35 size: 62874
x264 [info]: frame P:25692 Avg QP:20.42 size: 28139
x264 [info]: frame B:74001 Avg QP:23.40 size: 9551
x264 [info]: consecutive B-frames: 1.8% 3.2% 7.2% 64.6% 12.5% 9.0% 1.0% 0.7% 0.0% 0.0% 0.0% 0.0% 0.0% 0.0% 0.0% 0.0% 0.0%
x264 [info]: mb I I16..4: 8.7% 78.1% 13.2%
x264 [info]: mb P I16..4: 1.6% 10.6% 1.0% P16..4: 33.6% 35.4% 13.8% 0.0% 0.0% skip: 4.0%
x264 [info]: mb B I16..4: 0.2% 1.8% 0.1% B16..8: 31.8% 18.5% 3.4% direct: 9.7% skip:34.6% L0:36.5% L1:40.9% BI:22.5%
x264 [info]: 8x8 transform intra:82.2% inter:70.2%
x264 [info]: direct mvs spatial:98.5% temporal:1.5%
x264 [info]: coded y,uvDC,uvAC intra: 83.7% 77.2% 45.6% inter: 37.2% 34.9% 8.7%
x264 [info]: i16 v,h,dc,p: 64% 13% 4% 19%
x264 [info]: i8 v,h,dc,ddl,ddr,vr,hd,vl,hu: 10% 8% 5% 9% 14% 14% 13% 13% 14%
x264 [info]: i4 v,h,dc,ddl,ddr,vr,hd,vl,hu: 11% 7% 6% 8% 15% 16% 13% 12% 12%
x264 [info]: i8c dc,h,v,p: 35% 26% 20% 19%
x264 [info]: Weighted P-Frames: Y:38.7% UV:21.9%
x264 [info]: ref P L0: 40.7% 12.9% 15.0% 6.9% 4.7% 4.1% 3.3% 2.0% 1.7% 1.5% 1.4% 1.3% 1.2% 1.2% 1.1% 0.9%
x264 [info]: ref B L0: 85.4% 6.7% 2.2% 1.2% 0.9% 0.8% 0.6% 0.4% 0.3% 0.3% 0.3% 0.3% 0.2% 0.2% 0.1%
x264 [info]: ref B L1: 97.0% 3.0%
x264 [info]: kb/s:2920.57
x264 [total]: encoded 100234 frames, 11.37 fps, 2920.57 kb/s
-General
Unique ID : 236434989199847603682563622318479947667 (0xB1DFB8F9B2A26C67A20F406FCAC2B793)
Complete name : Стряпуха.1965.mkv
Format : Matroska
Format version : Version 2
File size : 1.45 GiB
Duration : 1h 6mn
Overall bit rate : 3 114 Kbps
Movie name : «Стряпуха»
Encoded date : UTC 2014-06-30 13:57:23
Writing application : mkvmerge v5.8.0 ('No Sleep / Pillow') built on Sep 2 2012 15:37:04
Writing library : libebml v1.2.3 + libmatroska v1.3.0
Comment : HDTVRip-AVC
Original date released : June 28th 2014
Encoded by : imgeorgest®
Video
ID : 1
Format : AVC
Format/Info : Advanced Video Codec
Format profile : High@L4.1
Format settings, CABAC : Yes
Format settings, ReFrames : 16 frames
Codec ID : V_MPEG4/ISO/AVC
Duration : 1h 6mn
Bit rate : 2 921 Kbps
Width : 940 pixels
Height : 528 pixels
Display aspect ratio : 16:9
Frame rate mode : Constant
Frame rate : 25.000 fps
Color space : YUV
Chroma subsampling : 4:2:0
Bit depth : 8 bits
Scan type : Progressive
Bits/(Pixel*Frame) : 0.235
Stream size : 1.34 GiB (92%)
Title : Стряпуха.1965
Writing library : x264 core 130 r2273 b3065e6
Encoding settings : cabac=1 / ref=16 / deblock=1:-2:-2 / analyse=0x3:0x113 / me=umh / subme=11 / psy=1 / psy_rd=1.00:0.05 / mixed_ref=1 / me_range=32 / chroma_me=1 / trellis=2 / 8x8dct=1 / cqm=0 / deadzone=21,11 / fast_pskip=0 / chroma_qp_offset=-3 / threads=12 / lookahead_threads=3 / sliced_threads=0 / nr=0 / decimate=0 / interlaced=0 / bluray_compat=0 / constrained_intra=0 / bframes=16 / b_pyramid=2 / b_adapt=2 / b_bias=0 / direct=3 / weightb=1 / open_gop=0 / weightp=2 / keyint=250 / keyint_min=25 / scenecut=40 / intra_refresh=0 / rc_lookahead=60 / rc=2pass / mbtree=1 / bitrate=2921 / ratetol=1.0 / qcomp=0.70 / qpmin=0 / qpmax=32 / qpstep=4 / cplxblur=20.0 / qblur=0.5 / vbv_maxrate=50000 / vbv_bufsize=62500 / nal_hrd=none / ip_ratio=1.25 / aq=1:0.70
Language : Russian
Default : Yes
Forced : No
Color primaries : BT.709
Transfer characteristics : BT.709
Matrix coefficients : BT.709
Audio
ID : 2
Format : AC-3
Format/Info : Audio Coding 3
Mode extension : CM (complete main)
Format settings, Endianness : Big
Codec ID : A_AC3
Duration : 1h 6mn
Bit rate mode : Constant
Bit rate : 192 Kbps
Channel(s) : 2 channels
Channel positions : Front: L R
Sampling rate : 48.0 KHz
Bit depth : 16 bits
Compression mode : Lossy
Stream size : 91.8 MiB (6%)
Title : AC-3; 16 bit 48 Khz; 2.0 ch 192 Kbps; CBR
Language : Russian
Default : Yes
Forced : No
[Профиль] [ЛС]

Создавать темы 06-Авг-2015 22:04 (спустя 11 месяцев 26 дней)

Топик был перенесен из форума Кино СССР в форум Кино СССР
sergej644
 
Кто просматривает тему:

Показать сообщения:    

Текущее время: Сегодня 22:27

Часовой пояс: GMT



Вы не можете начинать темы
Вы не можете отвечать на сообщения
Вы не можете редактировать свои сообщения
Вы не можете удалять свои сообщения
Вы не можете голосовать в опросах
Вы не можете прикреплять файлы к сообщениям
Вы не можете скачивать файлы