Строго на запад / Slow West (2015) BDRip [H.264/720p]

 
Автор Сообщение

sergej644 ®

Пол:

Стаж: 4 года 11 месяцев

Сообщений: 6045

Откуда: Soviet Union



Награды: Нет

Торрент-статистика

Создавать темы 01-Мар-2016 20:06

[Цитировать]

-Строго на запад / Slow West (2015) BDRip [H.264/720p]«Wanted dead or dead»- Производство: Великобритания, Новая Зеландия / DMC Film, Film4, New Zealand Film Commission
Жанр: вестерн, драма, триллер
Режиссер: Джон Маклин
Продюсер: Эйн Каннинг, Рэйчел Гарднер, Конор МакКохан
Актеры: Майкл Фассбендер, Бен Мендельсон, Коди Смит-МакФи, Рори МакКанн, Брук Уильямс, Карен Писториус, Алекс МакКуин, Энди МакФи, Джеффри Томас, Калани Кейпо
Описание:
Авантюрист средних лет ведет молодого выходца из Шотландии на Запад, куда тот отправился на поиски возлюбленной, по следу которой идут еще и охотники за головами. Истоия c непредсказуемым завершением, описать которое в одном предложении было бы кощунством.

Возраст: 16+ (зрителям, достигшим 16 лет)
Рейтинг MPAA: R (лицам до 17 лет обязательно присутствие взрослого)
Дата мировой премьеры: 24 января 2015
Дата российской премьеры: 21 января 2016, «Кинологистика»

Релиз от: hdclub
Продолжительность: 01:24:00
Качество: BDRip 720p
Перевод: Дублированный (Лицензия BD RUS), Авторский (одноголосый, закадровый) М.Чадов
Вид субтитров: Вшитые, отключаемые
Язык субтитров: Русский, Английский
Видео: AVC/H.264, 1192x720p, (5:3), 7 200 Kbps, 23.976 fps
Аудио: DTS, 6 ch, 1509 kbps - Русский, дубляж
Аудио: DTS, 6 ch, 1509 kbps - Русский, М.Чадов
Аудио: DTS, 6 ch, 1509 kbps - Английский

MediaInfo:

General
Unique ID                                : 233674304436074234496372032654711220336 (0xAFCC08B530768EB393862D27EEE86870)
Complete name                            : Slow.West.2015.720p.BluRay.2xRus.Eng.HDCLUB.mkv
Format                                   : Matroska
Format version                           : Version 2
File size                                : 6.88 GiB
Duration                                 : 1h 24mn
Overall bit rate                         : 11.7 Mbps
Movie name                               : Slow West (2015) - Release for HDCLUB
Encoded date                             : UTC 2016-02-28 08:41:46
Writing application                      : mkvmerge v5.7.0 ('The Whirlwind') built on Jul  8 2012 20:08:51
Writing library                          : libebml v1.2.3 + libmatroska v1.3.0
Video
ID                                       : 1
Format                                   : AVC
Format/Info                              : Advanced Video Codec
Format profile                           : [url=mailto:High@L4.1]High@L4.1[/url]
Format settings, CABAC                   : Yes
Format settings, ReFrames                : 9 frames
Codec ID                                 : V_MPEG4/ISO/AVC
Duration                                 : 1h 24mn
Bit rate                                 : 7 200 Kbps
Width                                    : 1 192 pixels
Height                                   : 720 pixels
Display aspect ratio                     : 5:3
Frame rate mode                          : Constant
Frame rate                               : 23.976 fps
Color space                              : YUV
Chroma subsampling                       : 4:2:0
Bit depth                                : 8 bits
Scan type                                : Progressive
Bits/(Pixel*Frame)                       : 0.350
Stream size                              : 4.09 GiB (59%)
Writing library                          : x264 core 142 r2431+42 c69a006 tMod [8-bit@4:2:0 X86_64]
Encoding settings                        : cabac=1 / ref=9 / deblock=1:-3:-3 / analyse=0x3:0x133 / me=umh / subme=11 / psy=1 / fade_compensate=0.00 / psy_rd=1.10:0.00 / mixed_ref=1 / me_range=48 / chroma_me=1 / trellis=2 / 8x8dct=1 / cqm=0 / deadzone=21,11 / fast_pskip=0 / chroma_qp_offset=-2 / threads=18 / lookahead_threads=4 / sliced_threads=0 / nr=0 / decimate=1 / interlaced=0 / bluray_compat=0 / constrained_intra=0 / fgo=0 / bframes=10 / b_pyramid=2 / b_adapt=2 / b_bias=0 / direct=3 / weightb=1 / open_gop=0 / weightp=2 / keyint=250 / keyint_min=23 / scenecut=40 / intra_refresh=0 / rc_lookahead=40 / rc=2pass / mbtree=0 / bitrate=7200 / ratetol=1.0 / qcomp=0.65 / qpmin=0:0:0 / qpmax=69:69:69 / qpstep=4 / cplxblur=20.0 / qblur=0.5 / vbv_maxrate=62500 / vbv_bufsize=78125 / nal_hrd=none / filler=0 / ip_ratio=1.20 / pb_ratio=1.10 / aq=3:0.75 / aq-sensitivity=10.00 / aq-factor=1.00:1.00:1.00 / aq2=0 / aq3=0
Language                                 : English
Default                                  : Yes
Forced                                   : No
Audio #1
ID                                       : 2
Format                                   : DTS
Format/Info                              : Digital Theater Systems
Mode                                     : 16
Format settings, Endianness              : Big
Codec ID                                 : A_DTS
Duration                                 : 1h 24mn
Bit rate mode                            : Constant
Bit rate                                 : 1 509 Kbps
Channel(s)                               : 6 channels
Channel positions                        : Front: L C R, Side: L R, LFE
Sampling rate                            : 48.0 KHz
Bit depth                                : 24 bits
Compression mode                         : Lossy
Stream size                              : 907 MiB (13%)
Title                                    : |Дубляж, Blu-Ray RUS|
Language                                 : Russian
Default                                  : Yes
Forced                                   : No
Audio #2
ID                                       : 3
Format                                   : DTS
Format/Info                              : Digital Theater Systems
Mode                                     : 16
Format settings, Endianness              : Big
Codec ID                                 : A_DTS
Duration                                 : 1h 24mn
Bit rate mode                            : Constant
Bit rate                                 : 1 509 Kbps
Channel(s)                               : 6 channels
Channel positions                        : Front: L C R, Side: L R, LFE
Sampling rate                            : 48.0 KHz
Bit depth                                : 24 bits
Compression mode                         : Lossy
Stream size                              : 907 MiB (13%)
Title                                    : |Одноголосый закадровый, М.Чадов|
Language                                 : Russian
Default                                  : No
Forced                                   : No
Audio #3
ID                                       : 4
Format                                   : DTS
Format/Info                              : Digital Theater Systems
Mode                                     : 16
Format settings, Endianness              : Big
Codec ID                                 : A_DTS
Duration                                 : 1h 24mn
Bit rate mode                            : Constant
Bit rate                                 : 1 509 Kbps
Channel(s)                               : 6 channels
Channel positions                        : Front: L C R, Side: L R, LFE
Sampling rate                            : 48.0 KHz
Bit depth                                : 24 bits
Compression mode                         : Lossy
Stream size                              : 907 MiB (13%)
Language                                 : English
Default                                  : No
Forced                                   : No
Text #1
ID                                       : 5
Format                                   : UTF-8
Codec ID                                 : S_TEXT/UTF8
Codec ID/Info                            : UTF-8 Plain Text
Language                                 : Russian
Default                                  : No
Forced                                   : No
Text #2
ID                                       : 6
Format                                   : UTF-8
Codec ID                                 : S_TEXT/UTF8
Codec ID/Info                            : UTF-8 Plain Text
Title                                    : English SDH
Language                                 : English
Default                                  : No
Forced                                   : No
Text #3
ID                                       : 7
Format                                   : UTF-8
Codec ID                                 : S_TEXT/UTF8
Codec ID/Info                            : UTF-8 Plain Text
Language                                 : English
Default                                  : No
Forced                                   : No
Menu
00:00:00.000                             : en:Chapter 01
00:04:55.128                             : en:Chapter 02
00:10:24.165                             : en:Chapter 03
00:14:35.541                             : en:Chapter 04
00:19:08.397                             : en:Chapter 05
00:25:29.236                             : en:Chapter 06
00:29:17.756                             : en:Chapter 07
00:35:17.282                             : en:Chapter 08
00:39:36.291                             : en:Chapter 09
00:45:26.641                             : en:Chapter 10
00:51:45.436                             : en:Chapter 11
00:55:14.186                             : en:Chapter 12
01:01:43.909                             : en:Chapter 13
01:07:38.596                             : en:Chapter 14
01:10:55.960                             : en:Chapter 15
01:18:29.330                             : en:Chapter 16
Скриншоты:
Время раздачи: 24/7
[Профиль] [ЛС]
Показать сообщения:    

Текущее время: Сегодня 18:30

Часовой пояс: GMT



Вы не можете начинать темы
Вы не можете отвечать на сообщения
Вы не можете редактировать свои сообщения
Вы не можете удалять свои сообщения
Вы не можете голосовать в опросах
Вы не можете прикреплять файлы к сообщениям
Вы не можете скачивать файлы