Строго на запад / Медленный Запад / Slow West (Джон Маклин) [2015 г., Вестерн, драма, триллер, BDRip 1080p] DUB (iTunes) + SUB

 
Автор Сообщение

BOSS ®

Пол:

Стаж: 2 года 1 месяц

Сообщений: 3735

Откуда: ODESSA



Награды: 20 (Подробнее)

Top Releaser 3 (Количество: 1) Mega Releaser 3 (Количество: 1) Top Seeder 4 (Количество: 1)
Торрент-статистика

Создавать темы 07-Фев-2016 06:04

[Цитировать]

-
Строго на запад / Медленный Запад / Slow West
-- Год выпуска: 2015
Страна: Великобритания, Новая Зеландия
Производство: DMC Film, Film4, New Zealand Film Commission, See-Saw Films
Жанр: Вестерн, драма, триллер
Продолжительность: 01:23:59
Перевод: Профессиональный (полное дублирование) [iTunes], + Оригинал (английский)
Субтитры: Английские
Режиссер: Джон Маклин
В ролях: Коди Смит-МакФи, Майкл Фассбендер, Бен Мендельсон, Аорере Паки, Хейден Фрост, Карен Писториус, Киран Чернок, Эдвин Райт, Джозеф Пасси, Эндрю Робертт
Описание: История авантюриста по имени Сайлас, сопровождающего в опасном путешествии вдоль всей американской границы 16-летнего паренька по имени Джей Кавендиш. Джей разыскивает девушку, в которую влюблен. Они пересеклись случайно, одинокий волк, отбившийся от волчьей стаи и заяц, оказавшийся в волчьем логове. Он мог дать ему умереть, мог убить, но не вцепился в горло, а пошёл с ним по следу, помогая найти затаившуюся где-то любовь, провожая через поля ненависти и леса страха, твёрдо, не решив, что делать дальше с ним и с собой.-[imdb]http://www.imdb.com/title/tt3205376[/imdb]-Качество: BDRip 1080p
Формат: MKV
Видео кодек: H 264
Аудио кодек: AC3 / DTS
Видео: 1792x1080 (1.66:1), 23.976 fps, MPEG4 AVC, ~11.6 Mbps avg, 0.249 bit/pixel
Аудио #1: 48 kHz, AC3 Dolby Digital, 3/2 (L,C,R,l,r) + LFE ch, ~384.00 kbps (русский)
Аудио #2: 48 kHz, DTS, 3/2 (L,C,R,l,r) + LFE ch, 1510.00 kbps (английский)
Формат субтитров: PGS

Это интересно:

Первоначально фильм планировали снимать на 35-мм пленку, однако в итоге сняли на «цифру».
Съемки фильма проходили в Твайзеле, в Новой Зеландии.
Это первый игровой полнометражный фильм режиссёра Джона Маклина.

MediaInfo:

General
Unique ID : 183405058985463502017097525508950179084 (0x89FA878DA777DF3D86750D5307E7BD0C)
Название : C:\StrOgO.na.WEST.2015.D.BDRip.1O8OP.mkv
Формат : Matroska
Формат version : Version 2
Размер файла : 7.96 GiB
Длительность : 1h 23mn
Общий Битрейт : 13.7 Mbps
Encoded date : UTC 2016-02-06 19:06:54
Создано приложением : mkvmerge v8.3.0 ('Over the Horizon') 64bit
Writing library : libebml v1.3.1 + libmatroska v1.4.2
Video
ID : 3
Формат : AVC
Формат/Info : Advanced Video Кодек
Формат profile : High@L4.1
Формат настройки, CABAC : Yes
Формат настройки, ReFrames : 4 frames
Кодек ID : V_MPEG4/ISO/AVC
Длительность : 1h 23mn
Битрейт : 11.6 Mbps
Width : 1 792 пикселей
Высота : 1 080 пикселей
Соотношение кадра : 1.659
Частота кадров : 24.000 fps
Цветопередача : YUV
Chroma subsampling : 4:2:0
Разрядность : 8 bits
Тип сканирования : Progressive
Bits/(Pixel*Frame) : 0.249
Размер потока : 6.71 GiB (84%)
Язык : English
Default : Yes
Forced : No
Audio #1
ID : 1
Формат : AC-3
Формат/Info : Audio Coding 3
Расширение режима : CM (complete main)
Кодек ID : A_AC3
Длительность : 1h 23mn
Битрейт mode : Constant
Битрейт : 384 Kbps
Channel(s) : 6 каналов
Channel positions : Front: L C R, Side: L R, LFE
Частота : 48.0 KHz
Разрядность : 16 bits
Режим сжатия : Lossy
Delay relative to video : 11ms
Размер потока : 228 MiB (3%)
Default : Yes
Forced : No
Audio #2
ID : 2
Формат : DTS
Формат/Info : Digital Theater Systems
Кодек ID : A_DTS
Длительность : 1h 23mn
Битрейт mode : Constant
Битрейт : 1 510 Kbps
Channel(s) : 6 каналов
Channel positions : Front: L C R, Side: L R, LFE
Частота : 48.0 KHz
Разрядность : 24 bits
Режим сжатия : Lossy
Размер потока : 897 MiB (11%)
Язык : English
Default : No
Forced : No
Text #1
ID : 4
Формат : PGS
Muxing mode : zlib
Кодек ID : S_HDMV/PGS
Кодек ID/Info : The same subtitle Формат used on BDs/HD-DVDs
Язык : English
Default : No
Forced : No
Text #2
ID : 5
Формат : PGS
Muxing mode : zlib
Кодек ID : S_HDMV/PGS
Кодек ID/Info : The same subtitle Формат used on BDs/HD-DVDs
Язык : English
Default : No
Forced : No
Menu
00:00:00.000 : en:
00:09:32.125 : en:
00:19:12.291 : en:
00:29:05.875 : en:
00:37:45.125 : en:
00:46:56.083 : en:
00:59:06.416 : en:
01:09:57.083 : en:
01:18:22.666 : en:

Скриншоты:

[Профиль] [ЛС]
Показать сообщения:    

Текущее время: Сегодня 12:45

Часовой пояс: GMT



Вы не можете начинать темы
Вы не можете отвечать на сообщения
Вы не можете редактировать свои сообщения
Вы не можете удалять свои сообщения
Вы не можете голосовать в опросах
Вы не можете прикреплять файлы к сообщениям
Вы не можете скачивать файлы