Стриптизёрши / Hustlers (2019) BDRip | iTunes

 
Author Message

BOSS ®

Gender:

Longevity: 5 years 3 months

Posts: 14230

Location: ODESSA



: 22 ()

Top Seeder 5 (1) Top Keeper 4 (1) Top Seeder 4 (1)
Торрент-статистика

Post 08-Dec-2019 09:43

[Quote]

Информация о фильме
Название: Стриптизёрши
Оригинальное название: Hustlers
Год выпуска: 2019
Жанр: Комедия, криминал, драма
Режиссер: Лорин Скафария
В ролях: Констанс Ву, Дженнифер Лопес, Джулия Стайлз, Кеке Палмер, Лили Рейнхарт, Карди Би, Лиззо, Мерседес Рул, Мадлен Брюэр, Метте Таули, Трейс Лисетт, Ашер, Вэй Чинг Хо, Эмма Батис, Ванесса Аспильяга, Биг Джей Оакерсон, Фрэнк Уэйли, Девин Рэтрей, Стивен Бойер, Пол А Нилсен, Майк Келлер, Джон Глейсер
О фильме: Они - яркие, сексуальные и очень амбициозные. Они - танцовщицы элитного стриптиз-клуба, клиенты которого - известные финансисты с Уолл-Стрит. Но когда банковский кризис в одночасье превращает накопления девушек в пыль, подруги по несчастью жаждут отомстить. Они разрабатывают дерзкий план как вернуть потерянные деньги, чтобы снова вести роскошную гламурную жизнь, и отплатить биржевым гениям, оставив их без гроша.

Страна: США
Студия: Annapurna Pictures, Gloria Sanchez Productions, Nuyorican Productions, STX Films
Продолжительность: 01:50:06
Перевод: Профессиональный (дублированный) | iTunes
Файл
Качество: BDRip | Hustlers.2019.BDRemux.TeamHD-potroks
Формат: AVI
Видео: 720x304 (2.37:1), 23.976 fps, XviD build 73 ~1981 kbps avg, 0.38 bit/pixel
Аудио 1: 48 kHz, AC3 Dolby Digital, 3/2 (L,C,R,l,r) + LFE ch, ~384 kbps | RUS
Аудио 2: 48 kHz, AC3 Dolby Digital, 3/2 (L,C,R,l,r) + LFE ch, ~448 kbps | ENG
Субтитры: Английские (Full, SDH) - отдельно

Скриншоты

MediaInfo

Формат : AVI
Формат/Информация : Audio Video Interleave
Профиль формата : OpenDML
Размер файла : 2,18 Гбайт
Продолжительность : 1 ч. 50 м.
Общий поток : 2830 Кбит/сек
Название фильма : Стриптизёрши_2019_BDRip
Программа кодирования : VirtualDubMod 1.5.10.3 | (build 2550/release)
Авторское право : порошков
Видео
Идентификатор : 0
Формат : MPEG-4 Visual
Профиль формата : Advanced Simple@L5
Настройки формата : BVOP1 / Custom Matrix
Параметр BVOP формата : 1
Параметр QPel формата : Нет
Параметр GMC формата : Без точки перехода
Параметр матрицы формата : Выборочная
Идентификатор кодека : XVID
Идентификатор кодека/Подсказка : XviD
Продолжительность : 1 ч. 50 м.
Битрейт : 1981 Кбит/сек
Ширина : 720 пикселей
Высота : 304 пикселя
Соотношение сторон : 2,35:1
Частота кадров : 23,976 (24000/1001) кадра/сек
Цветовое пространство : YUV
Субдискретизация насыщенности : 4:2:0
Битовая глубина : 8 бит
Тип развёртки : Прогрессивная
Метод сжатия : С потерями
Бит/(Пиксели*Кадры) : 0.378
Размер потока : 1,52 Гбайт (70%)
Библиотека кодирования : XviD 73
Аудио #1
Идентификатор : 1
Формат : AC-3
Формат/Информация : Audio Coding 3
Коммерческое название : Dolby Digital
Идентификатор кодека : 2000
Продолжительность : 1 ч. 49 м.
Вид битрейта : Постоянный
Битрейт : 384 Кбит/сек
Каналы : 6 каналов
ChannelLayout : L R C LFE Ls Rs
Частота : 48,0 КГц
Частота кадров : 31,250 кадров/сек (1536 SPF)
Метод сжатия : С потерями
Размер потока : 301 Мбайт (14%)
Выравнивание : Разделение по промежуткам
Продолжительность промежутка : 42 мс. (1,00 видеокадр)
Время предзагрузки промежутка : 500 мс.
Заголовок : rus
Аудио #2
Идентификатор : 2
Формат : AC-3
Формат/Информация : Audio Coding 3
Коммерческое название : Dolby Digital
Идентификатор кодека : 2000
Продолжительность : 1 ч. 50 м.
Вид битрейта : Постоянный
Битрейт : 448 Кбит/сек
Каналы : 6 каналов
ChannelLayout : L R C LFE Ls Rs
Частота : 48,0 КГц
Частота кадров : 31,250 кадров/сек (1536 SPF)
Метод сжатия : С потерями
Размер потока : 353 Мбайт (16%)
Выравнивание : Разделение по промежуткам
Продолжительность промежутка : 42 мс. (1,00 видеокадр)
Время предзагрузки промежутка : 500 мс.
Заголовок : eng
[Profile] [PM]
Display posts from previous:    

The time now is: Today 09:13

All times are GMT



You cannot post new topics in this forum
You cannot reply to topics in this forum
You cannot edit your posts in this forum
You cannot delete your posts in this forum
You cannot vote in polls in this forum
You cannot attach files in this forum
You cannot download files in this forum