Стрингер / Nightcrawle (Дэн Гилрой / Dan Gilroy) [2014, триллер, драма, криминал, HDRip] L2, A, P

 
Автор Сообщение

AleksSin ®

Пол:

Стаж: 6 лет

Сообщений: 218



Награды: 4 (Подробнее)

Mega Seeder 3 (Количество: 1) Mega Seeder 4 (Количество: 1) Mega Seeder 1 (Количество: 1)
Торрент-статистика

Создавать темы 19-Апр-2015 12:31

[Цитировать]

Стрингер / Nightcrawle«Ночью город сияет ярче» Страна: США
Жанр: триллер, драма, криминал
Год выпуска: 2014
Продолжительность: 01:58:05
Перевод 1: Любительский (двухголосый, закадровый) - Студия Пиратского Дубляжа
Перевод 2: Авторский (одноголосый, закадровый) - Д.Есарев
Перевод 3: Профессиональный (многоголосый, закадровый) - Цікава ідея
Субтитры: Русские, английские (Full, SDH)
Режиссер: Дэн Гилрой / Dan Gilroy
В ролях: Джейк Джилленхол, Рене Руссо, Билл Пэкстон, Джонни Койн, Энн МакДэниелс, Риз Ахмед, Джейми МакШейн, Кэтлин Йорк, Эрик Ланж, Майкл Хайатт
Описание: Молодой человек сталкивается с подпольным миром внештатной криминальной журналистики в Лос-Анджелесе.

Качество видео: HDRip (Исх. BDRip 720p)
Формат видео: AVI
Видео кодек: XviD
Аудио кодек:AC3
Видео: 720x304 (2.37:1), 23.976 fps, XviD build 73 ~1520 kbps avg, 0.29 bit/pixel
Аудио#1: 48 kHz, AC3 Dolby Digital, 2/0 (L,R) ch, ~192.00 kbps avg | Русский - Студия Пиратского Дубляжа
Аудио#2: 48 kHz, AC3 Dolby Digital, 3/2 (L,C,R,l,r) + LFE ch, ~448.00 kbps avg | Русский - Д.Есарев
Аудио#3: 48 kHz, AC3 Dolby Digital, 3/2 (L,C,R,l,r) + LFE ch, ~448.00 kbps avg | Украинский - Цікава ідея

MediaInfo

Общее
Полное имя : S:ФильмыСтрингер. 2014. HDRip. 2.18 (AleksSin)Стрингер. 2014. HDRip (AleksSin).avi
Формат : AVI
Формат/Информация : Audio Video Interleave
Профиль формата : OpenDML
Размер файла : 2,17 Гбайт
Продолжительность : 1 ч. 58 м.
Общий поток : 2632 Кбит/сек
Программа кодирования : VirtualDubMod 1.5.10.2 (build 2540/release)
Библиотека кодирования : VirtualDubMod build 2540/release
Видео
Идентификатор : 0
Формат : MPEG-4 Visual
Профиль формата : Advanced Simple@L5
Параметр BVOP формата : 1
Параметр QPel формата : Нет
Параметр GMC формата : Без точки перехода
Параметр матрицы формата : Выборочная
Идентификатор кодека : XVID
Идентификатор кодека/Подсказка : XviD
Продолжительность : 1 ч. 58 м.
Битрейт : 1520 Кбит/сек
Ширина : 720 пикс.
Высота : 304 пикс.
Соотношение сторон : 2,35:1
Частота кадров : 23,976 кадр/сек
Цветовое пространство : YUV
Подвыборка цветности : 4:2:0
Битовая глубина : 8 бит
Тип развёртки : Прогрессивная
Метод сжатия : С потерями
Бит/(Пиксели*Кадры) : 0.290
Размер потока : 1,25 Гбайт (58%)
Библиотека кодирования : XviD 73
Аудио #1
Идентификатор : 1
Формат : AC-3
Формат/Информация : Audio Coding 3
Расширение режима : CM (complete main)
Идентификатор кодека : 2000
Продолжительность : 1 ч. 57 м.
Вид битрейта : Постоянный
Битрейт : 192 Кбит/сек
Каналы : 2 канала
Расположение каналов : Front: L R
Частота : 48,0 КГц
Битовая глубина : 16 бит
Метод сжатия : С потерями
Размер потока : 162 Мбайт (7%)
Выравнивание : Разделение по промежуткам
Продолжительность промежутка : 42 мс. (1,00 видеокадр)
Время предзагрузки промежутка : 500 ms
Аудио #2
Идентификатор : 2
Формат : AC-3
Формат/Информация : Audio Coding 3
Расширение режима : CM (complete main)
Идентификатор кодека : 2000
Продолжительность : 1 ч. 58 м.
Вид битрейта : Постоянный
Битрейт : 448 Кбит/сек
Каналы : 6 каналов
Расположение каналов : Front: L C R, Side: L R, LFE
Частота : 48,0 КГц
Битовая глубина : 16 бит
Метод сжатия : С потерями
Размер потока : 378 Мбайт (17%)
Выравнивание : Разделение по промежуткам
Продолжительность промежутка : 42 мс. (1,00 видеокадр)
Время предзагрузки промежутка : 500 ms
Аудио #3
Идентификатор : 3
Формат : AC-3
Формат/Информация : Audio Coding 3
Расширение режима : CM (complete main)
Идентификатор кодека : 2000
Продолжительность : 1 ч. 58 м.
Вид битрейта : Постоянный
Битрейт : 448 Кбит/сек
Каналы : 6 каналов
Расположение каналов : Front: L C R, Side: L R, LFE
Частота : 48,0 КГц
Битовая глубина : 16 бит
Метод сжатия : С потерями
Размер потока : 378 Мбайт (17%)
Выравнивание : Разделение по промежуткам
Продолжительность промежутка : 42 мс. (1,00 видеокадр)
Время предзагрузки промежутка : 500 ms

Скриншоты

[Профиль] [ЛС]
Показать сообщения:    

Текущее время: Сегодня 20:11

Часовой пояс: GMT



Вы не можете начинать темы
Вы не можете отвечать на сообщения
Вы не можете редактировать свои сообщения
Вы не можете удалять свои сообщения
Вы не можете голосовать в опросах
Вы не можете прикреплять файлы к сообщениям
Вы не можете скачивать файлы