Стрелок 2 (2014) DVDRip

 
Автор Сообщение

достали все ®

Пол:

Стаж: 1 год 8 месяцев

Сообщений: 6536



Награды: 12 (Подробнее)

Mega Releaser 2 (Количество: 1) Mega Releaser 3 (Количество: 1) За внесенный вклад в развитие сайта (Количество: 1)
Торрент-статистика

Создавать темы 11-Июл-2016 17:01

[Цитировать]

Страна: Россия
Производство: Берг Саунд
Жанр: боевик
Год выпуска: 2014
Продолжительность: 02:49:55
Перевод: Не требуется
Cубтитры: нет
Оригинальная аудиодорожка: русский
Режиссер: Аршо Арутюнян
В ролях:
Евгений Березовский, Александр Носик, Юлия Борисова, Станислав Эрклиевский, Дмитрий Клепацкий, Сергей Холмогоров, Сос Джанибекян, Давид Кацарава, Арам Караханян, Сергей Апрельский, Виктор Фалалеев...
Полный список актёров
Описание:
События разворачиваются в наши дни в одном из среднеазиатских государств.
Брата Мадины, вступившегося за сестру, убивают преследующие девушку бандиты. Отцу Мадины Абдулу отказывает в помощи давний друг. Убитый горем мужчина вынужден искать поддержки на стороне, так как все вокруг или запуганы, или подкуплены бандой головорезов. Абдул приезжает в Москву, где знакомится с бывшим сотрудником спецслужб Андреем Макаровым. Андрей соглашается помочь Абдулу. Спецслужбы оказывают Макарову негласное содействие. Помогают Андрею и его товарищам и односельчане Абдула...- -Источник: DVD9 R5
Качество видео: DVDRip
Формат видео: AVI
Видео: 720x304 (2.368:1), 25 fps, XviD ~ 1029 kbps avg, 0.188 bit/pixel
Аудио: 48 kHz, Dolby Digital AC3 2.0, 192 kbps
Раздача от:

MediaInfo

Общее
Полное имя : Strelok.2.2014.DVDRip_[New-team]_by_AVP_Studio.avi
Формат : AVI
Формат/Информация : Audio Video Interleave
Размер файла : 1,46 Гбайт
Продолжительность : 2 ч. 49 м.
Общий поток : 1231 Кбит/сек
Программа кодирования : VirtualDubMod 1.5.10.3 | www.virtualdub-fr.org || (build 2550/release)
Библиотека кодирования : VirtualDubMod build 2550/release
Видео
Идентификатор : 0
Формат : MPEG-4 Visual
Профиль формата : Advanced Simple@L5
Параметр BVOP формата : 1
Параметр QPel формата : Нет
Параметр GMC формата : Без точки перехода
Параметр матрицы формата : Выборочная
Идентификатор кодека : XVID
Идентификатор кодека/Подсказка : XviD
Продолжительность : 2 ч. 49 м.
Битрейт : 1029 Кбит/сек
Ширина : 720 пикселей
Высота : 304 пикселя
Соотношение сторон : 2,35:1
Частота кадров : 25,000 кадров/сек
Цветовое пространство : YUV
Субдискретизация насыщенности : 4:2:0
Битовая глубина : 8 бит
Тип развёртки : Прогрессивная
Метод сжатия : С потерями
Бит/(Пиксели*Кадры) : 0.188
Размер потока : 1,22 Гбайт (84%)
Библиотека кодирования : XviD 1.2.1 (UTC 2008-12-04)
Аудио
Идентификатор : 1
Формат : AC-3
Формат/Информация : Audio Coding 3
Расширение режима : CM (complete main)
Параметр Endianness формата : Big
Идентификатор кодека : 2000
Продолжительность : 2 ч. 49 м.
Вид битрейта : Постоянный
Битрейт : 192 Кбит/сек
Каналы : 2 канала
Расположение каналов : Front: L R
Частота : 48,0 КГц
Частота кадров : 31,250 кадров/сек (1536 spf)
Метод сжатия : С потерями
Размер потока : 233 Мбайт (16%)
Выравнивание : Разделение по промежуткам
Продолжительность промежутка : 40 мс. (1,00 видеокадр)
Время предзагрузки промежутка : 500 мс

Скриншоты

[Профиль] [ЛС]
Кто просматривает тему:

Форум Тема Автор Размер
Сhanson (Шансон) Дмитрий Сулей и Олег Альпийский - Не стреляйте в Воров! - 2015, MP3, 320 kbps Russian Mafia 168 MB
Научная и техническая литература 1000 образцов стрелкового оружия [2004, DjVu] Garik014 12 MB
Action FireArms:Source by NovGames (BOTS INCL) / Огнестрельное оружие (Версия с ботами) [P] [RUS / ENG] (2014) (7.2.1) TorrentFilm 3.41 GB
Action FireArms:Source v 3.3.2.1 / Огнестрельное оружие [P] [RUS / RUS/ENG] (2013) (3.3.2.1) TorrentFilm 6.74 GB
XXXI Летние Олимпийские игры. Рио-де-Жанейро 2016 (Бразилия) XXXI Летние Олимпийские Игры. Рио-де-Жанейро (Бразилия). Стендовая стрельба. Женщины. Трап. Финал [07.08] (2016) IPTV 1080i Russian Mafia 1.38 GB
XXXI Летние Олимпийские игры. Рио-де-Жанейро 2016 (Бразилия) XXXI Летние Олимпийские Игры. Рио-де-Жанейро (Бразилия). Стрельба из лука. Женщины. Командное первенство. 1/4, 1/2 финала, Матч за 3-е место, Финал [07.08] (2016) HDTVRip BOSS 1.14 GB
XXXI Летние Олимпийские игры. Рио-де-Жанейро 2016 (Бразилия) XXXI Летние Олимпийские Игры. Рио-де-Жанейро (Бразилия). Стрельба из лука. Мужчины. Командное первенство. Финалы [Матч!] [06.08] (2016) WEBRip-AVC BOSS 325 MB
XXXI Летние Олимпийские игры. Рио-де-Жанейро 2016 (Бразилия) XXXI Летние Олимпийские Игры. Рио-де-Жанейро (Бразилия). Стрельба. Мужчины. Пневматический пистолет. 10 м. Финал [06.08] (2016) IPTV 1080i BOSS 1007 MB
Показать сообщения:    

Текущее время: Сегодня 06:26

Часовой пояс: GMT



Вы не можете начинать темы
Вы не можете отвечать на сообщения
Вы не можете редактировать свои сообщения
Вы не можете удалять свои сообщения
Вы не можете голосовать в опросах
Вы не можете прикреплять файлы к сообщениям
Вы не можете скачивать файлы