Стрелок / Shooter (Антуан Фукуа / Antoine Fuqua) [2007, США, Боевик, триллер, драма, криминал, детектив, BDRip] Dub

 
Автор Сообщение

painkiller ®

Стаж: 2 года 3 месяца

Сообщений: 582



Награды: Нет

Торрент-статистика

Создавать темы 16-Авг-2014 01:27

[Цитировать]

Стрелок / Shooter
«Раньше он верил в справедливость. Теперь - в возмездие»
- Год выпуска: 2007
Выпущено: США / Paramount Pictures
Жанр: боевик, триллер, драма, криминал, детектив
Продолжительность: 02:05:41
Перевод: Профессиональный (полное дублирование) BD CEE
Cубтитры: нет-Режиссер:
Антуан Фукуа / Antoine Fuqua-В ролях:
Марк Уолберг (Bob Lee Swagger), Майкл Пенья (Nick Memphis), Дэнни Гловер (Colonel Isaac Johnson), Кейт Мара (Sarah Fenn), Элиас Котеас (Jack Payne), Нед Битти (Senator Charles F. Meachum), Раде Шербеджия (Michael Sandor), Рона Митра (Alourdes Galindo), Джонатан Уолкер (Louis Dobbler)-Описание:
Опытный снайпер Бобби оказывается втянутым в заговор с целью убийства президента. Похоже, что его хотят подставить и «сдать» властям, поэтому ему необходимо как можно быстрее найти и обезвредить настоящего убийцу…-Релиз группы | IMDB | КиноПоиск |-Качество: BDRip [Blu-ray Disc]
Формат: AVI
Видео: 720x304 (2.37:1), 23.976 fps, XviD build 73 ~1269 kbps avg, 0.24 bit/pixel
Аудио: 48 kHz, AC3 Dolby Digital, 3/2 (L,C,R,l,r) + LFE ch, ~384.00 kbps avg
-

Скриншоты

MediaInfo

General
Complete name                            : D:\Strelok_2007_BDRip_by_Dalemake.avi
Format                                   : AVI
Format/Info                              : Audio Video Interleave
File size                                : 1.46 GiB
Duration                                 : 2h 5mn
Overall bit rate                         : 1 663 Kbps
Writing application                      : VirtualDubMod 1.5.10.3 | www.virtualdub-fr.org || (build 2550/release)
Writing library                          : VirtualDubMod build 2550/release
Video
ID                                       : 0
Format                                   : MPEG-4 Visual
Format profile                           : Advanced Simple@L5
Format settings, BVOP                    : 1
Format settings, QPel                    : No
Format settings, GMC                     : No warppoints
Format settings, Matrix                  : Custom
Codec ID                                 : XVID
Codec ID/Hint                            : XviD
Duration                                 : 2h 5mn
Bit rate                                 : 1 270 Kbps
Width                                    : 720 pixels
Height                                   : 304 pixels
Display aspect ratio                     : 2.35:1
Frame rate                               : 23.976 fps
Color space                              : YUV
Chroma subsampling                       : 4:2:0
Bit depth                                : 8 bits
Scan type                                : Progressive
Compression mode                         : Lossy
Bits/(Pixel*Frame)                       : 0.242
Stream size                              : 1.11 GiB (76%)
Writing library                          : XviD 73
Audio
ID                                       : 1
Format                                   : AC-3
Format/Info                              : Audio Coding 3
Mode extension                           : CM (complete main)
Format settings, Endianness              : Big
Codec ID                                 : 2000
Duration                                 : 2h 5mn
Bit rate mode                            : Constant
Bit rate                                 : 384 Kbps
Channel(s)                               : 6 channels
Channel positions                        : Front: L C R, Side: L R, LFE
Sampling rate                            : 48.0 KHz
Bit depth                                : 16 bits
Compression mode                         : Lossy
Stream size                              : 345 MiB (23%)
Alignment                                : Split accross interleaves
Interleave, duration                     : 42 ms (1.00 video frame)
Interleave, preload duration             : 500 ms
-
[Профиль] [ЛС]

Создавать темы 06-Авг-2015 23:09 (спустя 11 месяцев 21 день)

Топик был перенесен из форума Фильмы до 2014 года в форум Фильмы до 2012 года
sergej644
 
Кто просматривает тему:

Форум Тема Автор Размер
Сhanson (Шансон) Дмитрий Сулей и Олег Альпийский - Не стреляйте в Воров! - 2015, MP3, 320 kbps Russian Mafia 168 MB
Научная и техническая литература 1000 образцов стрелкового оружия [2004, DjVu] Garik014 12 MB
Action FireArms:Source by NovGames (BOTS INCL) / Огнестрельное оружие (Версия с ботами) [P] [RUS / ENG] (2014) (7.2.1) TorrentFilm 3.41 GB
Action FireArms:Source v 3.3.2.1 / Огнестрельное оружие [P] [RUS / RUS/ENG] (2013) (3.3.2.1) TorrentFilm 6.74 GB
XXXI Летние Олимпийские игры. Рио-де-Жанейро 2016 (Бразилия) XXXI Летние Олимпийские Игры. Рио-де-Жанейро (Бразилия). Стендовая стрельба. Женщины. Трап. Финал [07.08] (2016) IPTV 1080i Russian Mafia 1.38 GB
XXXI Летние Олимпийские игры. Рио-де-Жанейро 2016 (Бразилия) XXXI Летние Олимпийские Игры. Рио-де-Жанейро (Бразилия). Стрельба из лука. Женщины. Командное первенство. 1/4, 1/2 финала, Матч за 3-е место, Финал [07.08] (2016) HDTVRip BOSS 1.14 GB
XXXI Летние Олимпийские игры. Рио-де-Жанейро 2016 (Бразилия) XXXI Летние Олимпийские Игры. Рио-де-Жанейро (Бразилия). Стрельба из лука. Мужчины. Командное первенство. Финалы [Матч!] [06.08] (2016) WEBRip-AVC BOSS 325 MB
XXXI Летние Олимпийские игры. Рио-де-Жанейро 2016 (Бразилия) XXXI Летние Олимпийские Игры. Рио-де-Жанейро (Бразилия). Стрельба. Мужчины. Пневматический пистолет. 10 м. Финал [06.08] (2016) IPTV 1080i BOSS 1007 MB
Показать сообщения:    

Текущее время: Сегодня 10:08

Часовой пояс: GMT



Вы не можете начинать темы
Вы не можете отвечать на сообщения
Вы не можете редактировать свои сообщения
Вы не можете удалять свои сообщения
Вы не можете голосовать в опросах
Вы не можете прикреплять файлы к сообщениям
Вы не можете скачивать файлы