Стрелок / Контрагент / The Contractor / The Shooter (Йозеф Руснак / Josef Rusnak) [2007, Болгария, Великобритания, США, боевик, триллер, драма, BDRip] MVO

 
Автор Сообщение

painkiller ®

Стаж: 2 года 3 месяца

Сообщений: 582



Награды: Нет

Торрент-статистика

Создавать темы 14-Авг-2014 13:02

[Цитировать]

Стрелок / Контрагент / The Contractor / The Shooter-«Снайпер становится мишенью»- Страна: Болгария, Великобритания, США
Жанр: боевик, триллер, драма
Год выпуска: 2007
Продолжительность: 01:38:30
Перевод: Профессиональный (многоголосый закадровый)
Режиссер: Йозеф Руснак / Josef Rusnak
В ролях: Уэсли Снайпс, Лина Хиди, Элиза Беннетт, Ральф Браун, Чарлз Дэнс, Джемма Джоунс, Айэйн Робертсон, Ричард Харрингтон, Райан МакКласки, Джон Стандинг, Станимир Стаматов, Милош Мирослав, Велизар Бинев, Николай Сотиров
Описание: Отставной стрелок Джеймс Дайл, живет на своем ранчо в штате Монтана. В свое время он был лучшим снайпером ЦРУ, принимавшим участие в самых сложных и засекреченных операциях.
К нему наведывается бывшее начальство, чтобы поручить последнее дело — устранить приговоренного к суду террориста в Лондоне, который даже в случае обвинительного приговора способен продолжать свою деятельность из-за стен тюрьмы. То, что было бы обычной миссией для снайпера, превращается в кошмар, поскольку цена проигрыша в этой игре — жизнь самого Дайла.
Сэмпл: http://multi-up.com/960605
Качество видео: BDRip (исходник - The.Contractor.2007.BDRemux.HDTracker / спасибо delo2006 )
Формат видео: AVI
Видео: 720x400 (16:9), 23.976 fps, XviD MPEG-4 ~1656 kbps avg, 0.24 bit/pixel
Аудио: 48 kHz, AC3 Dolby Digital, 3/2 (L,C,R,l,r) + LFE ch, ~448 kbps

MediaInfo

Общее
Полное имя                               : F:\RT\Strelok.2007.XviD.BDRip.Inch.avi
Формат                                   : AVI
Формат/Информация                        : Audio Video Interleave
Размер файла                             : 1,45 Гбайт
Продолжительность                        : 1 ч. 38 м.
Общий поток                              : 2114 Кбит/сек
Название фильма                          : Strelok.2007.XviD.BDRip.Inch
Режиссёр                                 : rip by Inch
Жанр                                     : Action / Crime / Drama
Программа кодирования                    : VirtualDubMod 1.5.10.3 | www.virtualdub-fr.org || (build 2550/release)
Формат оригинала/Имя                     : The Contractor / 2007
Правообладатель                          : torrentfilm.net
Примечание                               : RusMVO
Видео
Идентификатор                            : 0
Формат                                   : MPEG-4 Visual
Профиль формата                          : Advanced Simple@L5
Параметр BVOP формата                    : 2
Параметр QPel формата                    : Нет
Параметр GMC формата                     : Без точки перехода
Параметр матрицы формата                 : Выборочная
Идентификатор кодека                     : XVID
Идентификатор кодека/Подсказка           : XviD
Продолжительность                        : 1 ч. 38 м.
Битрейт                                  : 1657 Кбит/сек
Ширина                                   : 720 пикселей
Высота                                   : 400 пикселей
Соотношение сторон                       : 16:9
Частота кадров                           : 23,976 кадра/сек
Цветовое пространство                    : YUV
Субдискретизация насыщенности            : 4:2:0
Битовая глубина                          : 8 бит
Тип развёртки                            : Прогрессивная
Метод сжатия                             : С потерями
Бит/(Пиксели*Кадры)                      : 0.240
Размер потока                            : 1,14 Гбайт (78%)
Библиотека кодирования                   : XviD 73
Аудио
Идентификатор                            : 1
Формат                                   : AC-3
Формат/Информация                        : Audio Coding 3
Расширение режима                        : CM (complete main)
Параметр Endianness формата              : Big
Идентификатор кодека                     : 2000
Продолжительность                        : 1 ч. 38 м.
Вид битрейта                             : Постоянный
Битрейт                                  : 448 Кбит/сек
Каналы                                   : 6 каналов
Расположение каналов                     : Front: L C R, Side: L R, LFE
Частота                                  : 48,0 КГц
Битовая глубина                          : 16 бит
Метод сжатия                             : С потерями
Размер потока                            : 316 Мбайт (21%)
Выравнивание                             : Разделение по промежуткам
Продолжительность промежутка             : 42  мс. (1,00 видеокадр)
Время предзагрузки промежутка            : 500  мс.

Скриншот c названием фильма

[/URL]

Скриншоты

--
[Профиль] [ЛС]

Создавать темы 06-Авг-2015 23:13 (спустя 11 месяцев 23 дня)

Топик был перенесен из форума Фильмы до 2014 года в форум Фильмы до 2012 года
sergej644
 
Кто просматривает тему:

Форум Тема Автор Размер
Сhanson (Шансон) Дмитрий Сулей и Олег Альпийский - Не стреляйте в Воров! - 2015, MP3, 320 kbps Russian Mafia 168 MB
Научная и техническая литература 1000 образцов стрелкового оружия [2004, DjVu] Garik014 12 MB
Action FireArms:Source by NovGames (BOTS INCL) / Огнестрельное оружие (Версия с ботами) [P] [RUS / ENG] (2014) (7.2.1) TorrentFilm 3.41 GB
Action FireArms:Source v 3.3.2.1 / Огнестрельное оружие [P] [RUS / RUS/ENG] (2013) (3.3.2.1) TorrentFilm 6.74 GB
XXXI Летние Олимпийские игры. Рио-де-Жанейро 2016 (Бразилия) XXXI Летние Олимпийские Игры. Рио-де-Жанейро (Бразилия). Стендовая стрельба. Женщины. Трап. Финал [07.08] (2016) IPTV 1080i Russian Mafia 1.38 GB
XXXI Летние Олимпийские игры. Рио-де-Жанейро 2016 (Бразилия) XXXI Летние Олимпийские Игры. Рио-де-Жанейро (Бразилия). Стрельба из лука. Женщины. Командное первенство. 1/4, 1/2 финала, Матч за 3-е место, Финал [07.08] (2016) HDTVRip BOSS 1.14 GB
XXXI Летние Олимпийские игры. Рио-де-Жанейро 2016 (Бразилия) XXXI Летние Олимпийские Игры. Рио-де-Жанейро (Бразилия). Стрельба из лука. Мужчины. Командное первенство. Финалы [Матч!] [06.08] (2016) WEBRip-AVC BOSS 325 MB
XXXI Летние Олимпийские игры. Рио-де-Жанейро 2016 (Бразилия) XXXI Летние Олимпийские Игры. Рио-де-Жанейро (Бразилия). Стрельба. Мужчины. Пневматический пистолет. 10 м. Финал [06.08] (2016) IPTV 1080i BOSS 1007 MB
Показать сообщения:    

Текущее время: Сегодня 06:06

Часовой пояс: GMT



Вы не можете начинать темы
Вы не можете отвечать на сообщения
Вы не можете редактировать свои сообщения
Вы не можете удалять свои сообщения
Вы не можете голосовать в опросах
Вы не можете прикреплять файлы к сообщениям
Вы не можете скачивать файлы