Стрела / Arrow / Сезон: 1 / Серии: 1-23 из 23 (Джон Беринг, Гай Норман Би, Глен Винтер) [2012-2013, фантастика, боевик, драма, криминал, BDRip 720p] MVO (LostFilm) + MVO (NewStudio) + MVO (FOX) + Original + Sub (Eng)

 
Автор Сообщение

Russian Mafia ®

Пол:

Стаж: 1 год 8 месяцев

Сообщений: 4256



Награды: 10 (Подробнее)

Mega Seeder 4 (Количество: 1) Top Releaser 5 (Количество: 1) Top Releaser 4 (Количество: 1)
Торрент-статистика

Создавать темы 29-Мар-2016 05:57

[Цитировать]

-Стрела / Arrow
- -Год выпуска: 2012
Страна: США
Жанр: фантастика, боевик, драма, детектив, приключения
Продолжительность: ~00:45:00-Перевод:
  • Профессиональный (многоголосый закадровый) LostFilm
  • Профессиональный (многоголосый закадровый) NewStudio
  • Профессиональный (многоголосый закадровый) (Fox)
    -Режиссёр: Джон Беринг, Гай Норман Би, Глен Винтер-В ролях: Стивен Амелл, Кэти Кэссиди, Колин Доннелл, Дэвид Рэмси, Уилла Холланд, Сюзанна Томпсон, Пол Блекторн, Эмили Бетт Рикардс, Ману Беннетт, Колтон Хэйнс.-Описание:
    После кораблекрушения плейбой миллиардер Оливер Куин пропадает и считается погибшим в течение пяти лет, после чего его обнаруживают живым на затерянном острове в Тихом океане. Когда он возвращается домой в Старлинг-Сити, его преданная мать Мойра, столь любимая сестра Теа и лучший друг Томми приветствуют его дома, но они видят, что Оливер изменился после испытаний на острове. Хотя Оливер скрывает правду о человеке, которым он стал…-Доп. Информация:
    Релиз от: by Vlad1k_H_
  • Дорожка №1 получена наложением выделенного голоса на центр декодированного DTS.
  • Работа со звуком - Nez.
    -Качество: Bdrip 720p
    Контейнер: MKV-Видео: 1280x720 at 23,976 fps, x264@L4.1, 2pass, ~5500-7500 kbps avg
    Аудио#1: Russian: 48 kHz, DTS, 3/2 (L,C,R,l,r) + LFE ch, ~1536 kbps avg |Многоголосый закадровый, LostFilm|
    Аудио#2: Russian: 48 kHz, AC3, 3/2 (L,C,R,l,r) + LFE ch, ~384 kbps avg |Многоголосый закадровый, NewStudio|
    Аудио#3: Russian: 48 kHz, AC3, 2/0 (L,R) ch, ~192 kbps avg |Многоголосый закадровый, FOX|
    Аудио#4: English: 48 kHz, DTS, 3/2 (L,C,R,l,r) + LFE ch, ~1536 kbps avg
    Субтитры: English (SRT).

Знаете ли вы что...

  • Сериал снят по мотивам комиксов о супергерое DC Comics «Зелёная стрела». Комикс был создан Мортом Вейзингером и Джорджем Пэппом (George Papp).
  • Персонаж Зелёная Стрела впервые появился в «More Fun Comics #73», вышедшем в ноябре 1941 года.
  • Помимо того, что Джон Диггл является оригинальным персонажем, придуманным специально для сериала, он затем появился в комиксах серии «New 52», начиная с 24-го выпуска, который вышел в октябре 2013 года.
  • Телохранитель Оливера Джон Диггл назван не просто так. На самом деле персонаж назван в честь автора комиксов Энди Диггла, написавшего серию комиксов «Зелёная Стрела: Год первый» о начале пути Стрелы как супергероя.
  • Сцены у особняка Куинов снимались около Замка Хэтли (Hatley Castle) расположенного в Колвуде (Британская Колумбия, Канада). Этот же замок использовался в качестве особняка Лютора в сериале «Тайны Смолвиля» (2001-2011), а также как замок Чарльза Ксавье в фильмах о Людях Икс.
  • В сериале часто упоминается город Блёдхэвен. В комиксах DC этот город находится под защитой Дика Грейсона (Найтвинг).
  • В комиксах у Зелёной стрелы есть закадычный друг по имени Спиди, который был наркоманом. В сериале у сестры Куина прозвище Спиди, и она иногда употребляет наркотики. По сюжету она однажды встретится с Роем Харпером, который в комиксах был тем самым Спиди. Кроме того в комиксах был еще один персонаж по прозвищу Спиди — девушка Мия Дирдон.
  • Название клуба Оливера — «Verdant» (в переводе — «зеленый цвет»), а большая буква «V» над надписью напоминает стрелу. Это отсылка к персонажу из комиксов DC.
  • В сериале упоминается Коаст Сити (Coast City). В комиксах это родной город Хэла Джордана — одного из Зелёных Фонарей.
  • Квентин Лэнс (Пол Блекторн) имеет позывной «Дельта-Чарли 52». Это отсылка к обновленной серии комиксов DC52.
  • В пилотном эпизоде упоминается «Судья Грелл» — это отсылка к Майку Греллу, который долгое время писал комиксы серии «Зелёная Стрела».
  • Очертания города, показанные в сериале, — это кадры различных городов: Франкфурт (Германия), Сентер Сити (Филадельфия, штат Пенсильвания, США), Бэк Бэй Бостон (штат Массачусетс, США) и Токио (Япония).
  • На внешних кадрах штаб-квартиры полиции на самом деле запечатлен филиал Публичной библиотеки Лос-Анджелеса.
  • В отличие от сериала, в комиксах Эдвар Файерс (противник Оливера Куина) был наемником.
  • Внимание! Дальнейший список фактов о сериале содержит спойлеры. Будьте осторожны.
  • В пилотной серии за ужином после возвращения Оливера, Томми говорит ему, что он пропустил, упоминая в том числе, что в сериале «Остаться в живых» (2004-2010) все умерли. Дядя Стивена Амелла (Оливер Куин) Марк Пеллегрино исполнял роль Джейкоба в этом сериале.
  • В комиксах Дина «Лорел» Ланс – это настоящее имя Чёрной Канарейки.

Список серий


  • 01: Pilot / Пилот

  • 02: Honor Thy Father / Чти отца своего

  • 03: Lone Gunmen / Одинокие стрелки

  • 04: An Innocent Man / Невиновный

  • 05: Damaged / Ущербный

  • 06: Legacies / Наследие

  • 07: Muse of Fire / Муза огня

  • 08: Vendetta / Вендетта

  • 09: Year's End / Конец года

  • 10: Burned / Сгоревший

  • 11: Trust But Verify / Доверяй, но проверяй

  • 12: Vertigo / Вертиго

  • 13: Betrayal / Предательство

  • 14: The Odyssey / Одиссея

  • 15: Dodger / Ловкач

  • 16: Dead to Rights / Пойман на месте

  • 17: The Huntress Returns / Охотница возвращается

  • 18: Salvation / Спасение

  • 19: Unfinished Business / Незаконченное дело

  • 20: Home Invasion / Вторжение в дом

  • 21: The Undertaking / Предприятие

  • 22: Darkness on the Edge of Town / Темнота на краю города

  • 23: Sacrifice / Жертва

MediaInfo

General
Unique ID                                : 248694392449178269536129925014026251590 (0xBB18CC38D046576CA82E5288E5F8ED46)
Complete name                            : Q:\!СЕРИАЛЫ!\СТРЕЛА\Arrow S01 (2012) 720p BluRay HDCLUB\Arrow.S01E23.720p.BluRay.3xRus.Eng.HDCLUB.mkv
Format                                   : Matroska
Format version                           : Version 4 / Version 2
File size                                : 3.23 GiB
Duration                                 : 42mn 33s
Overall bit rate                         : 10.9 Mbps
Movie name                               : Arrow S01E22 720p BluRay DTS x264-TayTO
Encoded date                             : UTC 2014-01-23 08:27:37
Writing application                      : mkvmerge v6.5.0 ('Isn't she lovely') built on Oct 20 2013 12:50:05
Writing library                          : libebml v1.3.0 + libmatroska v1.4.1
[br]
Video
ID                                       : 1
Format                                   : AVC
Format/Info                              : Advanced Video Codec
Format profile                           : High@L4.1
Format settings, CABAC                   : Yes
Format settings, ReFrames                : 9 frames
Codec ID                                 : V_MPEG4/ISO/AVC
Duration                                 : 42mn 33s
Bit rate                                 : 7 044 Kbps
Width                                    : 1 280 pixels
Height                                   : 720 pixels
Display aspect ratio                     : 16:9
Frame rate mode                          : Constant
Frame rate                               : 23.976 fps
Color space                              : YUV
Chroma subsampling                       : 4:2:0
Bit depth                                : 8 bits
Scan type                                : Progressive
Bits/(Pixel*Frame)                       : 0.319
Stream size                              : 2.09 GiB (65%)
Writing library                          : x264 core 138 r2358 9e941d1
Encoding settings                        : cabac=1 / ref=9 / deblock=1:-3:-3 / analyse=0x3:0x133 / me=tesa / subme=11 / psy=1 / psy_rd=1.10:0.00 / mixed_ref=1 / me_range=16 / chroma_me=1 / trellis=2 / 8x8dct=1 / cqm=0 / deadzone=21,11 / fast_pskip=0 / chroma_qp_offset=-2 / threads=12 / lookahead_threads=2 / sliced_threads=0 / nr=0 / decimate=1 / interlaced=0 / bluray_compat=0 / constrained_intra=0 / bframes=9 / b_pyramid=2 / b_adapt=2 / b_bias=0 / direct=3 / weightb=1 / open_gop=0 / weightp=2 / keyint=250 / keyint_min=23 / scenecut=40 / intra_refresh=0 / rc=crf / mbtree=0 / crf=17.6 / qcomp=0.75 / qpmin=0 / qpmax=69 / qpstep=4 / ip_ratio=1.40 / pb_ratio=1.30 / aq=1:0.65
Language                                 : English
Default                                  : Yes
Forced                                   : No
Color range                              : Limited
Matrix coefficients                      : BT.709
[br]
Audio #1
ID                                       : 2
Format                                   : DTS
Format/Info                              : Digital Theater Systems
Mode                                     : 16
Format settings, Endianness              : Big
Codec ID                                 : A_DTS
Duration                                 : 42mn 33s
Bit rate mode                            : Constant
Bit rate                                 : 1 509 Kbps
Channel(s)                               : 6 channels
Channel positions                        : Front: L C R, Side: L R, LFE
Sampling rate                            : 48.0 KHz
Bit depth                                : 24 bits
Compression mode                         : Lossy
Stream size                              : 459 MiB (14%)
Title                                    : LostFilm @ DTS 5.1
Language                                 : Russian
Default                                  : No
Forced                                   : No
[br]
Audio #2
ID                                       : 3
Format                                   : AC-3
Format/Info                              : Audio Coding 3
Mode extension                           : CM (complete main)
Format settings, Endianness              : Big
Codec ID                                 : A_AC3
Duration                                 : 42mn 33s
Bit rate mode                            : Constant
Bit rate                                 : 384 Kbps
Channel(s)                               : 6 channels
Channel positions                        : Front: L C R, Side: L R, LFE
Sampling rate                            : 48.0 KHz
Compression mode                         : Lossy
Stream size                              : 117 MiB (4%)
Title                                    : NewStudio @ DD 5.1
Language                                 : Russian
Default                                  : No
Forced                                   : No
[br]
Audio #3
ID                                       : 4
Format                                   : AC-3
Format/Info                              : Audio Coding 3
Mode extension                           : CM (complete main)
Format settings, Endianness              : Big
Codec ID                                 : A_AC3
Duration                                 : 42mn 33s
Bit rate mode                            : Constant
Bit rate                                 : 192 Kbps
Channel(s)                               : 2 channels
Channel positions                        : Front: L R
Sampling rate                            : 48.0 KHz
Compression mode                         : Lossy
Stream size                              : 58.4 MiB (2%)
Title                                    : FOX @ DD 2.0
Language                                 : Russian
Default                                  : No
Forced                                   : No
[br]
Audio #4
ID                                       : 5
Format                                   : DTS
Format/Info                              : Digital Theater Systems
Mode                                     : 16
Format settings, Endianness              : Big
Codec ID                                 : A_DTS
Duration                                 : 42mn 33s
Bit rate mode                            : Constant
Bit rate                                 : 1 509 Kbps
Channel(s)                               : 6 channels
Channel positions                        : Front: L C R, Side: L R, LFE
Sampling rate                            : 48.0 KHz
Bit depth                                : 24 bits
Compression mode                         : Lossy
Stream size                              : 459 MiB (14%)
Title                                    : Original @ DTS 5.1
Language                                 : English
Default                                  : No
Forced                                   : No
[br]
Text #1
ID                                       : 6
Format                                   : UTF-8
Codec ID                                 : S_TEXT/UTF8
Codec ID/Info                            : UTF-8 Plain Text
Language                                 : English
Default                                  : No
Forced                                   : No
[br]
Text #2
ID                                       : 7
Format                                   : UTF-8
Codec ID                                 : S_TEXT/UTF8
Codec ID/Info                            : UTF-8 Plain Text
Language                                 : English
Default                                  : No
Forced                                   : No
[br]
Menu
00:00:00.000                             : en:00:00:00.000
00:00:26.109                             : en:00:00:26.109
00:04:53.793                             : en:00:04:53.793
00:07:43.463                             : en:00:07:43.463
00:14:54.143                             : en:00:14:54.143
00:25:41.749                             : en:00:25:41.749
00:30:50.682                             : en:00:30:50.682
00:37:41.676                             : en:00:37:41.676
00:42:02.603                             : en:00:42:02.603

Скриншоты

Сэмпл | КиноПоиск | IMDB |
[Профиль] [ЛС]
Кто просматривает тему:

Форум Тема Автор Размер
Сhanson (Шансон) Дмитрий Сулей и Олег Альпийский - Не стреляйте в Воров! - 2015, MP3, 320 kbps Russian Mafia 168 MB
Научная и техническая литература 1000 образцов стрелкового оружия [2004, DjVu] Garik014 12 MB
Action FireArms:Source by NovGames (BOTS INCL) / Огнестрельное оружие (Версия с ботами) [P] [RUS / ENG] (2014) (7.2.1) TorrentFilm 3.41 GB
Action FireArms:Source v 3.3.2.1 / Огнестрельное оружие [P] [RUS / RUS/ENG] (2013) (3.3.2.1) TorrentFilm 6.74 GB
XXXI Летние Олимпийские игры. Рио-де-Жанейро 2016 (Бразилия) XXXI Летние Олимпийские Игры. Рио-де-Жанейро (Бразилия). Стендовая стрельба. Женщины. Трап. Финал [07.08] (2016) IPTV 1080i Russian Mafia 1.38 GB
XXXI Летние Олимпийские игры. Рио-де-Жанейро 2016 (Бразилия) XXXI Летние Олимпийские Игры. Рио-де-Жанейро (Бразилия). Стрельба из лука. Женщины. Командное первенство. 1/4, 1/2 финала, Матч за 3-е место, Финал [07.08] (2016) HDTVRip BOSS 1.14 GB
XXXI Летние Олимпийские игры. Рио-де-Жанейро 2016 (Бразилия) XXXI Летние Олимпийские Игры. Рио-де-Жанейро (Бразилия). Стрельба из лука. Мужчины. Командное первенство. Финалы [Матч!] [06.08] (2016) WEBRip-AVC BOSS 325 MB
XXXI Летние Олимпийские игры. Рио-де-Жанейро 2016 (Бразилия) XXXI Летние Олимпийские Игры. Рио-де-Жанейро (Бразилия). Стрельба. Мужчины. Пневматический пистолет. 10 м. Финал [06.08] (2016) IPTV 1080i BOSS 1007 MB
Показать сообщения:    

Текущее время: Сегодня 06:18

Часовой пояс: GMT



Вы не можете начинать темы
Вы не можете отвечать на сообщения
Вы не можете редактировать свои сообщения
Вы не можете удалять свои сообщения
Вы не можете голосовать в опросах
Вы не можете прикреплять файлы к сообщениям
Вы не можете скачивать файлы