Стрела / Arrow [S01] (2012-2013) BDRip от New-Team | D | лицензия

 
Автор Сообщение

Белочка ®

Пол:

Стаж: 5 лет 1 месяц

Сообщений: 2089



Награды: 1 (Подробнее)

Girls (Количество: 1)
Торрент-статистика

Создавать темы 12-Окт-2014 09:03

[Цитировать]

«Судьба оставляет свой отпечаток» -Страна: США / Berlanti Productions, DC Entertainment, Warner Bros. Television
Год выпуска: 2012-2013
Жанр: фантастика, боевик, драма, криминал, детектив, приключения
Продолжительность: ~ 00:42:00 / серия
Перевод: Профессиональный (полное дублирование)
Субтитры: нет
Оригинальная аудиодорожка: английский-Режиссер: Джон Беринг / John Behring, Гай Норман Би / Guy Norman Bee, Ник Копус / Nick Copus...-В ролях: Стивен Амелл, Кэти Кэссиди, Дэвид Рэмси, Уилла Холланд, Эмили Бетт Рикардс, Пол Блекторн, Сюзанна Томпсон, Ману Беннетт, Колтон Хэйнс, Кейти Лотц...
Дублировали: Даниил Эльдаров, Илья Хвостиков, Анастасия Лапина, Иван Калинин, Ольга Шорохова...
Описание: После кораблекрушения плейбой миллиардер Оливер Куин пропадает и считается погибшим в течение пяти лет, после чего его обнаруживают живым на затерянном острове в Тихом океане. Когда он возвращается домой в Старлинг-Сити, его преданная мать Мойра, столь любимая сестра Теа и лучший друг Томми приветствуют его дома, но они видят, что Оливер изменился после испытаний на острове. Хотя Оливер скрывает правду о человеке, которым он стал…
-Качество: BDRip / 5 x DVD9 R5 лицензионные диски от «СР Дистрибуция» + Arrow.S01.Complete.2012.1080p.Blu-ray.AVC.DTS-HD.MA.5.1-TTG
Формат: AVI
Видео: 720x400 (16:9), 23.976 fps, XviD ~ 1800 kbps avg, 0.261 bit/pixel
Аудио 1: 48 kHz, Dolby AC3 5.1 448 kbps, русский
Аудио 2: 48 kHz, Dolby AC3 5.1 448 kbps, английский
Релиз от: [/url] [/url]

Серии

01. Пилот / Pilot, 10 октября 2012
02. Чти отца своего / Honor Thy Father, 17 октября 2012
03. Одинокий стрелок / Lone Gunmen, 24 октября 2012
04. Невиновный / An Innocent Man, 31 октября 2012
05. Испорченный / Damaged, 7 ноября 2012
06. Наследия / Legacies, 14 ноября 2012
07. Муза огня / Muse of Fire, 28 ноября 2012
08. Вендетта / Vendetta, 5 декабря 2012
09. Конец года / Year's End, 12 декабря 2012
10. Сожжёный / Burned, 16 января 2013
11. Доверяй, но проверяй / Trust But Verify, 23 января 2013
12. Головокружение / Vertigo, 30 января 2013
13. Предательство / Betrayal, 6 февраля 2013
14. Одиссея / The Odyssey, 13 февраля 2013
15. Ловкач / Dodger, 20 февраля 2013
16. Пойманный на месте преступления / Dead to Rights, 27 февраля 2013
17. Возвращение охотницы / The Huntress Returns, 20 марта 2013
18. Спасение / Salvation, 27 марта 2013
19. Незаконченное дело / Unfinished Business, 3 апреля 2013
20. Вторжение домой / Home Invasion, 24 апреля 2013
21. Предприятие / The Undertaking, 1 мая 2013
22. Тьма на окраине города / Darkness on the Edge of Town, 8 мая 2013
23. Жертва / Sacrifice, 15 мая 2013

MediaInfo

Общее
Полное имя : Strela.2012.D.BDRip_[New-Team]_by_keeper1.avi
Формат : AVI
Формат/Информация : Audio Video Interleave
Размер файла : 826 Мбайт
Продолжительность : 42 м.
Общий поток : 2710 Кбит/сек
Программа кодирования : VirtualDubModRus 1.5.10.2 (build 2542/release)
Библиотека кодирования : VirtualDubMod build 2542/release
Видео
Идентификатор : 0
Формат : MPEG-4 Visual
Профиль формата : Advanced Simple@L5
Параметр BVOP формата : 1
Параметр QPel формата : Нет
Параметр GMC формата : Без точки перехода
Параметр матрицы формата : Выборочная
Идентификатор кодека : XVID
Идентификатор кодека/Подсказка : XviD
Продолжительность : 42 м.
Битрейт : 1800 Кбит/сек
Ширина : 720 пикселей
Высота : 400 пикселей
Соотношение сторон : 16:9
Частота кадров : 23,976 кадра/сек
Цветовое пространство : YUV
Субдискретизация насыщенности : 4:2:0
Битовая глубина : 8 бит
Тип развёртки : Прогрессивная
Метод сжатия : С потерями
Бит/(Пиксели*Кадры) : 0.261
Размер потока : 548 Мбайт (66%)
Библиотека кодирования : XviD 73
Аудио #1
Идентификатор : 1
Формат : AC-3
Формат/Информация : Audio Coding 3
Расширение режима : CM (complete main)
Параметр Endianness формата : Big
Идентификатор кодека : 2000
Продолжительность : 42 м.
Вид битрейта : Постоянный
Битрейт : 448 Кбит/сек
Каналы : 6 каналов
Расположение каналов : Front: L C R, Side: L R, LFE
Частота : 48,0 КГц
Битовая глубина : 16 бит
Метод сжатия : С потерями
Размер потока : 137 Мбайт (17%)
Выравнивание : Разделение по промежуткам
Продолжительность промежутка : 42 мс. (1,00 видеокадр)
Время предзагрузки промежутка : 500 мс.
Аудио #2
Идентификатор : 2
Формат : AC-3
Формат/Информация : Audio Coding 3
Расширение режима : CM (complete main)
Параметр Endianness формата : Big
Идентификатор кодека : 2000
Продолжительность : 42 м.
Вид битрейта : Постоянный
Битрейт : 448 Кбит/сек
Каналы : 6 каналов
Расположение каналов : Front: L C R, Side: L R, LFE
Частота : 48,0 КГц
Битовая глубина : 16 бит
Метод сжатия : С потерями
Размер потока : 137 Мбайт (17%)
Выравнивание : Разделение по промежуткам
Продолжительность промежутка : 42 мс. (1,00 видеокадр)
Время предзагрузки промежутка : 500 мс.

Скриншоты

[Профиль] [ЛС]
Кто просматривает тему:

Форум Тема Автор Размер
Сhanson (Шансон) Дмитрий Сулей и Олег Альпийский - Не стреляйте в Воров! - 2015, MP3, 320 kbps Russian Mafia 168 MB
Научная и техническая литература 1000 образцов стрелкового оружия [2004, DjVu] Garik014 12 MB
Action FireArms:Source by NovGames (BOTS INCL) / Огнестрельное оружие (Версия с ботами) [P] [RUS / ENG] (2014) (7.2.1) TorrentFilm 3.41 GB
Action FireArms:Source v 3.3.2.1 / Огнестрельное оружие [P] [RUS / RUS/ENG] (2013) (3.3.2.1) TorrentFilm 6.74 GB
XXXI Летние Олимпийские игры. Рио-де-Жанейро 2016 (Бразилия) XXXI Летние Олимпийские Игры. Рио-де-Жанейро (Бразилия). Стендовая стрельба. Женщины. Трап. Финал [07.08] (2016) IPTV 1080i Russian Mafia 1.38 GB
XXXI Летние Олимпийские игры. Рио-де-Жанейро 2016 (Бразилия) XXXI Летние Олимпийские Игры. Рио-де-Жанейро (Бразилия). Стрельба из лука. Женщины. Командное первенство. 1/4, 1/2 финала, Матч за 3-е место, Финал [07.08] (2016) HDTVRip BOSS 1.14 GB
XXXI Летние Олимпийские игры. Рио-де-Жанейро 2016 (Бразилия) XXXI Летние Олимпийские Игры. Рио-де-Жанейро (Бразилия). Стрельба из лука. Мужчины. Командное первенство. Финалы [Матч!] [06.08] (2016) WEBRip-AVC BOSS 325 MB
XXXI Летние Олимпийские игры. Рио-де-Жанейро 2016 (Бразилия) XXXI Летние Олимпийские Игры. Рио-де-Жанейро (Бразилия). Стрельба. Мужчины. Пневматический пистолет. 10 м. Финал [06.08] (2016) IPTV 1080i BOSS 1007 MB
Показать сообщения:    

Текущее время: Сегодня 16:21

Часовой пояс: GMT



Вы не можете начинать темы
Вы не можете отвечать на сообщения
Вы не можете редактировать свои сообщения
Вы не можете удалять свои сообщения
Вы не можете голосовать в опросах
Вы не можете прикреплять файлы к сообщениям
Вы не можете скачивать файлы