Страшные сказки / Il racconto dei racconti (2015) BDRip 1080p от NovaLan | L1

 
Автор Сообщение

Russian Mafia ®

Пол:

Стаж: 1 год 8 месяцев

Сообщений: 4246



Награды: 10 (Подробнее)

За внесенный вклад в развитие сайта (Количество: 1) Mega Seeder 4 (Количество: 1) Mega Seeder 3 (Количество: 1)
Торрент-статистика

Создавать темы 08-Сен-2015 04:33

[Цитировать]

Название: Страшные сказки
Оригинальное название: Il racconto dei racconti
Год выхода: 2015
Жанр: Фэнтези, сказка, арт-хаус
Режиссер: Маттео Гарроне
В ролях: Сальма Хайек, Венсан Кассель, Тоби Джонс, Джон Си. Райли, Альба Рорвахеря
О фильме:
Маги и волшебники, короли и королевы, красавицы-принцессы и страшилы-великаны населяют эту потрясающую готическую фантазию. Сластолюбивый Король Одинокого Утеса берет в жены прелестную деву, а она превращается в уродливую старуху. Отважный Король Долины Туманов отправляется на бой с драконом, поскольку волшебник предсказал, что королева понесет ребенка, если съест сердце дракона. Ну, а Король Диких Гор с любовью выращивает гигантскую блоху, а родную дочь без тени сожаления отдает в жены горному орку. За стенами величественных замков строятся коварные козни, даются безрассудные обеты, там страстно любят и жестоко убивают…

Страна: Италия, Франция, Великобритания, Archimede, Le Pacte, Rai Cinema
Продолжительность: 02:13:46
Озвучено: Любительский одноголосый (Павел Морозов aka PashaUp)
Кодек: H.264
Качество: BDRip 1080p
Видео: MPEG-4 AVC, 9979 Кбит/с, 1920x816, 24.000 кадр/с
Перевод: Русский, английский (DTS, 6 ch, 1344 Кбит/с), русский, итальянский (AC3, 6 ch, 448 Кбит/с)
Субтитры: Русские, английские

Инфо-файл

Полное имя : D:Il.racconto.dei.racconti.2015.x264.BDRip.1080p.NovaLan.mkv
Формат : Matroska
Версия формата : Version 4 / Version 2
Размер файла : 12,7 Гбайт
Продолжительность : 2 ч. 13 м.
Общий поток : 13,6 Мбит/сек
Название фильма : Il racconto dei racconti 2015 - NovaLan
Дата кодирования : UTC 2015-09-06 14:16:51
Программа кодирования : mkvmerge v8.3.0 ('Over the Horizon') 64bit
Библиотека кодирования : libebml v1.3.1 + libmatroska v1.4.2
DURATION : 01:56:33.333000000
NUMBER_OF_FRAMES : 647
NUMBER_OF_BYTES : 17985
_STATISTICS_WRITING_APP : mkvmerge v8.3.0 ('Over the Horizon') 64bit
_STATISTICS_WRITING_DATE_UTC : 2015-09-06 14:16:51
_STATISTICS_TAGS : BPS DURATION NUMBER_OF_FRAMES NUMBER_OF_BYTES
Видео
Идентификатор : 1
Формат : AVC
Формат/Информация : Advanced Video Codec
Профиль формата : High@L4.1
Параметр CABAC формата : Да
Параметр ReFrames формата : 4 кадра
Идентификатор кодека : V_MPEG4/ISO/AVC
Продолжительность : 2 ч. 13 м.
Битрейт : 9979 Кбит/сек
Ширина : 1920 пикселей
Высота : 816 пикселей
Соотношение сторон : 2,35:1
Частота кадров : 24,000 кадра/сек
Цветовое пространство : YUV
Субдискретизация насыщенности : 4:2:0
Битовая глубина : 8 бит
Тип развёртки : Прогрессивная
Бит/(Пиксели*Кадры) : 0.265
Размер потока : 9,07 Гбайт (72%)
Заголовок : Sergei7721
Библиотека кодирования : x264 core 146 r2538 121396c
Настройки программы : cabac=1 / ref=4 / deblock=1:-1:-1 / analyse=0x3:0x113 / me=umh / subme=11 / psy=1 / psy_rd=1.00:0.20 / mixed_ref=1 / me_range=24 / chroma_me=1 / trellis=2 / 8x8dct=1 / cqm=0 / deadzone=21,11 / fast_pskip=0 / chroma_qp_offset=-3 / threads=12 / lookahead_threads=1 / sliced_threads=0 / nr=0 / decimate=0 / interlaced=0 / bluray_compat=0 / constrained_intra=0 / bframes=6 / b_pyramid=2 / b_adapt=2 / b_bias=0 / direct=3 / weightb=1 / open_gop=0 / weightp=2 / keyint=240 / keyint_min=24 / scenecut=40 / intra_refresh=0 / rc_lookahead=40 / rc=2pass / mbtree=0 / bitrate=9979 / ratetol=1.0 / qcomp=0.60 / qpmin=0 / qpmax=69 / qpstep=4 / cplxblur=20.0 / qblur=0.5 / vbv_maxrate=50000 / vbv_bufsize=62500 / nal_hrd=none / filler=0 / ip_ratio=1.40 / pb_ratio=1.30 / aq=1:1.00
Default : Да
Forced : Нет
DURATION : 02:13:46.000000000
NUMBER_OF_FRAMES : 192624
NUMBER_OF_BYTES : 10011000148
_STATISTICS_WRITING_APP : mkvmerge v8.3.0 ('Over the Horizon') 64bit
_STATISTICS_WRITING_DATE_UTC : 2015-09-06 14:16:51
_STATISTICS_TAGS : BPS DURATION NUMBER_OF_FRAMES NUMBER_OF_BYTES
Аудио #1
Идентификатор : 2
Формат : AC-3
Формат/Информация : Audio Coding 3
Расширение режима : CM (complete main)
Параметр Endianness формата : Big
Идентификатор кодека : A_AC3
Продолжительность : 2 ч. 13 м.
Вид битрейта : Постоянный
Битрейт : 448 Кбит/сек
Каналы : 6 каналов
Расположение каналов : Front: L C R, Side: L R, LFE
Частота : 48,0 КГц
Битовая глубина : 16 бит
Метод сжатия : С потерями
Размер потока : 429 Мбайт (3%)
Язык : Russian
Default : Да
Forced : Нет
Аудио #2
Идентификатор : 3
Формат : DTS
Формат/Информация : Digital Theater Systems
Идентификатор кодека : A_DTS
Продолжительность : 2 ч. 13 м.
Вид битрейта : Постоянный
Битрейт : 1344 Кбит/сек
Каналы : 6 каналов
Расположение каналов : Front: L C R, Side: L R, LFE
Частота : 48,0 КГц
Битовая глубина : 16 бит
Метод сжатия : С потерями
Размер потока : 1,26 Гбайт (10%)
Язык : Russian
Default : Нет
Forced : Нет
Аудио #3
Идентификатор : 4
Формат : DTS
Формат/Информация : Digital Theater Systems
Идентификатор кодека : A_DTS
Продолжительность : 2 ч. 13 м.
Вид битрейта : Постоянный
Битрейт : 1344 Кбит/сек
Каналы : 6 каналов
Расположение каналов : Front: L C R, Side: L R, LFE
Частота : 48,0 КГц
Битовая глубина : 16 бит
Метод сжатия : С потерями
Размер потока : 1,26 Гбайт (10%)
Язык : English
Default : Нет
Forced : Нет
Аудио #4
Идентификатор : 5
Формат : AC-3
Формат/Информация : Audio Coding 3
Расширение режима : CM (complete main)
Параметр Endianness формата : Big
Идентификатор кодека : A_AC3
Продолжительность : 2 ч. 13 м.
Вид битрейта : Постоянный
Битрейт : 448 Кбит/сек
Каналы : 6 каналов
Расположение каналов : Front: L C R, Side: L R, LFE
Частота : 48,0 КГц
Битовая глубина : 16 бит
Метод сжатия : С потерями
Размер потока : 429 Мбайт (3%)
Язык : Italian
Default : Нет
Forced : Нет
Текст #1
Идентификатор : 6
Формат : UTF-8
Идентификатор кодека : S_TEXT/UTF8
Идентификатор кодека/Информация : UTF-8 Plain Text
Язык : Russian
Default : Нет
Forced : Нет
Текст #2
Идентификатор : 7
Формат : UTF-8
Идентификатор кодека : S_TEXT/UTF8
Идентификатор кодека/Информация : UTF-8 Plain Text
Язык : English
Default : Нет
Forced : Нет
Меню
00:00:00.000 : en:00:00:00.000
00:08:36.792 : en:00:08:36.792
00:19:37.750 : en:00:19:37.750
00:26:20.250 : en:00:26:20.250
00:36:05.000 : en:00:36:05.000
00:44:24.083 : en:00:44:24.083
00:56:14.458 : en:00:56:14.458
01:09:24.583 : en:01:09:24.583
01:24:24.625 : en:01:24:24.625
01:33:59.333 : en:01:33:59.333
01:47:49.333 : en:01:47:49.333
02:01:58.917 : en:02:01:58.917

Скриншоты

[Профиль] [ЛС]
Кто просматривает тему:

Форум Тема Автор Размер
Отечественная Классика Александр Александрович Бестужев-Марлинский - Страшное гадание [Любовь Конева, 2012] Magnat 66 MB
Фильмы 2011 года Бесстрашные ученики / The Disciples (2000) VHSRip от bittracker Белочка 731 MB
Разная литература Виктор Страшнов, Ольга Страшнова | Строим современный загородный дом. Современные материалы (2015) [FB2] достали все 10 MB
Зарубежные сериалы Все в порядке, это любовь / Просто это любовь / Ничего страшного, это любовь / It's Okay It's Love [01-16 из 16](2014) HDTVRip 720р | L2 Белочка 18.51 GB
Зарубежные сериалы Все в порядке, это любовь / Просто это любовь / Ничего страшного, это любовь / It's Okay It's Love [01-16 из 16](2014) HDTVRip | L2 Белочка 9.64 GB
Зарубежные мультфильмы Драконы: Гонки бесстрашных. Начало / Dragons: Dawn of the Dragon Racers (2014) BDRip-AVC от MediaClub | D sergej644 637 MB
Отечественные мультсериалы Маша и Медведь + Машины сказки + Машкины страшилки (2009-2014) BDRemux 1080р BOSS 97.02 GB
Отечественные мультсериалы Маша и медведь [01-50] / Машкины страшилки [01, 02] (Олег Ужинов, Денис Червяцов, Олег Кузовков) (2009-2015 Мультипликационный сериал) DVDRip, HDRip, BDRip, WEB-DLRip BOSS 6.13 GB
Показать сообщения:    

Текущее время: Сегодня 02:43

Часовой пояс: GMT



Вы не можете начинать темы
Вы не можете отвечать на сообщения
Вы не можете редактировать свои сообщения
Вы не можете удалять свои сообщения
Вы не можете голосовать в опросах
Вы не можете прикреплять файлы к сообщениям
Вы не можете скачивать файлы