Страшные сказки / Penny Dreadful [S01-02] (2014) HDRip, WEB-DLRip | AlexFilm

 
Автор Сообщение

Russian Mafia ®

Пол:

Стаж: 1 год 8 месяцев

Сообщений: 4247



Награды: 10 (Подробнее)

Top Releaser 3 (Количество: 1) Top Releaser 4 (Количество: 1) Mega Seeder 5 (Количество: 1)
Торрент-статистика

Создавать темы 28-Окт-2015 08:31

[Цитировать]

Информация о фильме
Название: Страшные сказки
Оригинальное название: Penny Dreadful
Год выхода: 2014
Жанр: Ужасы, триллер, вампиры
Режиссер: Хуан Антонио Байона, Дирбла Уолш, Сэм Мендес
В ролях: Тимоти Далтон, Ева Грин, Джош Хартнетт, Рори Киннер, Хелен МакКрори, Билли Пайпер, Гарри Тредэвэй, Рив Карни, Алан Армстронг, Рик Берн, Джейд Юрелл
О фильме:
Сериал возвращает нас к всеми любимым героям, монстрам и злодеям. В викторианском Лондоне, где происходит действие сериала, никогда не было спокойно и безопасно. Особенно теперь, когда литературные персонажи ожили и наводят ужас на город. Неминуема встреча с вечно молодым Дорианом Греем, героем одноименного романа Оскара Уальда, доктором Франкенштейном и его зомби-монстром, хладнокровным графом Дракулой, охотником на вампиров и оборотней Ван Хельсингом и множеством других уникальных персонажей.

Список серий:

Сезон 1
01. Ночная работа / Night Work
02. Спиритический сеанс / Séance
03. Воскрешение / Resurrection
04. Полусвет / Demimonde
05. Больше, чем сёстры / Closer Than Sisters
06. То, что смерть соединила / What Death Can Join Together
07. Одержимость / Possession
08. Гран Гиньоль / Grand Guignol
Сезон 2
01. Сущий ад (Fresh Hell)
02. Язык Дьявола (Verbis Diablo)
03. Приходящие в ночи (The Nightcomers)
04. Духи злобы поднебесной (Evil Spirits in Heavenly Places)
05. Вверху — лишь купол синий (Above the Vaulted Sky)
06. Великие ужасы (Glorious Horrors)
07. Маленький скорпион (Little Scorpion)
08. Помни о смерти (Memento Mori)
09. Мой единственный враг — сам Ад (And Hell Itself My Only Foe)
10. И стали они врагами (And They Were Enemies)
Страна: США, Ирландия, Великобритания
Студия: Desert Wolf Productions, Neal Street Productions
Продолжительность: 18 x ~ 00:53:00
Перевод: Профессиональный (многоголосый, закадровый) [AlexFilm]
Файл
Формат: AVI
Качество: HDRip, WEB-DLRip
Видео: XviD, 720x400, ~1900 kbps, 23.976 fps
Аудио: AC3, 48.0 KHz, 6 ch, 192 Kbps
Субтитры: Нет
Семпл

Скриншоты

MI

Complete name : E:KinoStrashnye.Skazki.XviD.GFStrashnye.Skazki.S01.2014.XviD.HDRip.AF.GFStrashnye.Skazki.s01e01.2014.XviD.HDRip.AF.GF.avi
Format : AVI
Format/Info : Audio Video Interleave
File size : 819 MiB
Duration : 53mn 1s
Overall bit rate : 2 160 Kbps
Writing application : VirtualDubMod 1.5.10.3 | www.virtualdub-fr.org || (build 2550/release)
Writing library : VirtualDubMod build 2550/release
Video
ID : 0
Format : MPEG-4 Visual
Format profile : Advanced Simple@L5
Format settings, BVOP : 2
Format settings, QPel : No
Format settings, GMC : No warppoints
Format settings, Matrix : Default (H.263)
Codec ID : XVID
Codec ID/Hint : XviD
Duration : 53mn 1s
Bit rate : 1 959 Kbps
Width : 720 pixels
Height : 400 pixels
Display aspect ratio : 16:9
Frame rate : 23.976 fps
Color space : YUV
Chroma subsampling : 4:2:0
Bit depth : 8 bits
Scan type : Progressive
Compression mode : Lossy
Bits/(Pixel*Frame) : 0.284
Stream size : 743 MiB (91%)
Writing library : XviD 1.2.1 (UTC 2008-12-04)
Audio
ID : 1
Format : AC-3
Format/Info : Audio Coding 3
Mode extension : CM (complete main)
Format settings, Endianness : Big
Codec ID : 2000
Duration : 53mn 1s
Bit rate mode : Constant
Bit rate : 192 Kbps
Channel(s) : 6 channels
Channel positions : Front: L C R, Side: L R, LFE
Sampling rate : 48.0 KHz
Compression mode : Lossy
Stream size : 72.8 MiB (9%)
Alignment : Split accross interleaves
Interleave, duration : 42 ms (1.00 video frame)
Interleave, preload duratio : 500 ms
[Профиль] [ЛС]
Кто просматривает тему:

Форум Тема Автор Размер
Отечественная Классика Александр Александрович Бестужев-Марлинский - Страшное гадание [Любовь Конева, 2012] Magnat 66 MB
Фильмы 2011 года Бесстрашные ученики / The Disciples (2000) VHSRip от bittracker Белочка 731 MB
Разная литература Виктор Страшнов, Ольга Страшнова | Строим современный загородный дом. Современные материалы (2015) [FB2] достали все 10 MB
Зарубежные сериалы Все в порядке, это любовь / Просто это любовь / Ничего страшного, это любовь / It's Okay It's Love [01-16 из 16](2014) HDTVRip 720р | L2 Белочка 18.51 GB
Зарубежные сериалы Все в порядке, это любовь / Просто это любовь / Ничего страшного, это любовь / It's Okay It's Love [01-16 из 16](2014) HDTVRip | L2 Белочка 9.64 GB
Зарубежные мультфильмы Драконы: Гонки бесстрашных. Начало / Dragons: Dawn of the Dragon Racers (2014) BDRip-AVC от MediaClub | D sergej644 637 MB
Отечественные мультсериалы Маша и Медведь + Машины сказки + Машкины страшилки (2009-2014) BDRemux 1080р BOSS 97.02 GB
Отечественные мультсериалы Маша и медведь [01-50] / Машкины страшилки [01, 02] (Олег Ужинов, Денис Червяцов, Олег Кузовков) (2009-2015 Мультипликационный сериал) DVDRip, HDRip, BDRip, WEB-DLRip BOSS 6.13 GB
Показать сообщения:    

Текущее время: Сегодня 12:35

Часовой пояс: GMT



Вы не можете начинать темы
Вы не можете отвечать на сообщения
Вы не можете редактировать свои сообщения
Вы не можете удалять свои сообщения
Вы не можете голосовать в опросах
Вы не можете прикреплять файлы к сообщениям
Вы не можете скачивать файлы