Страшная Сила Смеха (Наталия Касьянова) [2015, Документальный, HDTV 720p]

 
Автор Сообщение

TorrentFilm ®

Пол:

Стаж: 1 год 11 месяцев

Сообщений: 7741



Награды: Нет

Торрент-статистика

Создавать темы 14-Апр-2015 00:03

[Цитировать]

Страшная Сила Смеха- Год выпуска: 2015
Страна: Россия
Студия: Россия HD
Жанр: Документальный
Продолжительность: 0:43:34
Автор: Кристина Абрамян
Режиссер: Наталия Касьянова-Описание: Смех - одна из самых естественных реакций человека. Мы умеем смеяться практически с рождения и, возможно, именно поэтому считаем смех совершенно безопасным. Но так ли это на самом деле? Пытки, смерти, убийства, эпидемии - это обратная сторона такого явления, как смех.-Автор рипа: lrn
Автор записи: Generalfilm
Сэмпл: sendfile-Тип релиза: HDTV 720p
Контейнер: MKV
Видео: 1280x720 (16:9), 25,000 fps, H264, ~4000 kbps avg, ~0.174 bit/pixel
Аудио: 48 kHz, AC3 Dolby Digital, 2/0 (L,R) ch, ~192.00 kbps avg-

MediaInfo

GeneralUnique ID : 216785597837883593311235815844094072266 (0xA317632F3036DCD485D49611E9BED5CA)Complete name : E:\uTorrent.Temp\Temp\Strashnaya.Sila.Smeha.2015.HDTV.720p.x264-lrn.mkvFormat : MatroskaFormat version : Version 4 / Version 2File size : 1.28 GiBDuration : 43mn 34sOverall bit rate : 4 194 KbpsMovie name : Strashnaya.Sila.Smeha.2015.HDTV.720p.x264-lrnEncoded date : UTC 2010-02-22 21:41:31Writing application : mkvmerge v5.9.0 ('On The Loose') built on Dec 9 2012 15:37:01Writing library : libebml v1.3.0 + libmatroska v1.4.0DURATION : 00:43:34.400000000NUMBER_OF_FRAMES : 65360NUMBER_OF_BYTES : 1307293205_STATISTICS_WRITING_APP : mkvmerge v7.0.0 ('Where We Going') 32bit built on Jun 9 2014 15:08:34_STATISTICS_WRITING_DATE_UT : 2015-04-02 17:20:32_STATISTICS_TAGS : BPS DURATION NUMBER_OF_FRAMES NUMBER_OF_BYTES
VideoID : 1Format : AVCFormat/Info : Advanced Video CodecFormat profile : High@L4.1Format settings, CABAC : YesFormat settings, ReFrames : 8 framesCodec ID : V_MPEG4/ISO/AVCDuration : 43mn 34sBit rate : 4 000 KbpsWidth : 1 280 pixelsHeight : 720 pixelsDisplay aspect ratio : 16:9Frame rate mode : ConstantFrame rate : 25.000 fpsColor space : YUVChroma subsampling : 4:2:0Bit depth : 8 bitsScan type : ProgressiveBits/(Pixel*Frame) : 0.174Stream size : 1.19 GiB (93%)Writing library : x264 core 142 r2431 ac76440Encoding settings : cabac=1 / ref=8 / deblock=1:-3:-3 / analyse=0x3:0x133 / me=umh / subme=9 / psy=1 / psy_rd=1.00:0.00 / mixed_ref=1 / me_range=32 / chroma_me=1 / trellis=2 / 8x8dct=1 / cqm=0 / deadzone=21,11 / fast_pskip=1 / chroma_qp_offset=-2 / threads=12 / lookahead_threads=2 / sliced_threads=0 / nr=0 / decimate=1 / interlaced=0 / bluray_compat=0 / constrained_intra=0 / bframes=8 / b_pyramid=2 / b_adapt=2 / b_bias=0 / direct=3 / weightb=1 / open_gop=0 / weightp=2 / keyint=250 / keyint_min=25 / scenecut=40 / intra_refresh=0 / rc_lookahead=50 / rc=2pass / mbtree=1 / bitrate=4000 / ratetol=1.0 / qcomp=0.60 / qpmin=0 / qpmax=69 / qpstep=4 / cplxblur=20.0 / qblur=0.5 / vbv_maxrate=62500 / vbv_bufsize=78125 / nal_hrd=none / filler=0 / ip_ratio=1.40 / aq=1:1.00Default : YesForced : No
AudioID : 2Format : AC-3Format/Info : Audio Coding 3Mode extension : CM (complete main)Format settings, Endianness : BigCodec ID : A_AC3Duration : 43mn 34sBit rate mode : ConstantBit rate : 192 KbpsChannel(s) : 2 channelsChannel positions : Front: L RSampling rate : 48.0 KHzBit depth : 16 bitsCompression mode : LossyStream size : 59.8 MiB (5%)Language : RussianDefault : YesForced : No

x264 log

raw [info]: 1280x720p 1:1 @ 25/1 fps (cfr)x264 [info]: using SAR=1/1x264 [info]: using cpu capabilities: MMX2 SSE2Fast SSSE3 SSE4.2 AVXx264 [info]: profile High, level 4.1x264 [info]: frame I:531 Avg QP:11.82 size:105089x264 [info]: frame P:17126 Avg QP:15.23 size: 41348x264 [info]: frame B:47703 Avg QP:17.48 size: 11391x264 [info]: consecutive B-frames: 3.9% 6.1% 9.1% 40.2% 17.7% 13.6% 3.7% 3.4% 2.2%x264 [info]: mb I I16..4: 8.3% 65.0% 26.8%x264 [info]: mb P I16..4: 3.9% 19.6% 3.1% P16..4: 32.4% 21.8% 12.4% 0.9% 0.2% skip: 5.6%x264 [info]: mb B I16..4: 0.9% 2.5% 0.4% B16..8: 35.1% 13.2% 3.0% direct: 7.6% skip:37.3% L0:41.3% L1:45.9% BI:12.8%x264 [info]: 8x8 transform intra:71.0% inter:55.5%x264 [info]: direct mvs spatial:97.3% temporal:2.7%x264 [info]: coded y,uvDC,uvAC intra: 64.0% 78.1% 55.5% inter: 21.1% 28.3% 4.0%x264 [info]: i16 v,h,dc,p: 44% 20% 5% 31%x264 [info]: i8 v,h,dc,ddl,ddr,vr,hd,vl,hu: 22% 15% 15% 6% 7% 9% 8% 8% 9%x264 [info]: i4 v,h,dc,ddl,ddr,vr,hd,vl,hu: 25% 17% 10% 6% 9% 10% 9% 7% 7%x264 [info]: i8c dc,h,v,p: 40% 25% 24% 12%x264 [info]: Weighted P-Frames: Y:2.3% UV:1.5%x264 [info]: ref P L0: 57.8% 9.5% 15.6% 5.4% 4.0% 3.0% 2.6% 1.9% 0.2% 0.0%x264 [info]: ref B L0: 79.3% 10.7% 4.5% 2.3% 1.7% 1.0% 0.5%x264 [info]: ref B L1: 93.4% 6.6%x264 [info]: kb/s:4000.28encoded 65360 frames, 14.51 fps, 4000.28 kb/s

Скриншоты

-
[Профиль] [ЛС]
Кто просматривает тему:

Форум Тема Автор Размер
Отечественная Классика Александр Александрович Бестужев-Марлинский - Страшное гадание [Любовь Конева, 2012] Magnat 66 MB
Фильмы 2011 года Бесстрашные ученики / The Disciples (2000) VHSRip от bittracker Белочка 731 MB
Разная литература Виктор Страшнов, Ольга Страшнова | Строим современный загородный дом. Современные материалы (2015) [FB2] достали все 10 MB
Зарубежные сериалы Все в порядке, это любовь / Просто это любовь / Ничего страшного, это любовь / It's Okay It's Love [01-16 из 16](2014) HDTVRip 720р | L2 Белочка 18.51 GB
Зарубежные сериалы Все в порядке, это любовь / Просто это любовь / Ничего страшного, это любовь / It's Okay It's Love [01-16 из 16](2014) HDTVRip | L2 Белочка 9.64 GB
Зарубежные мультфильмы Драконы: Гонки бесстрашных. Начало / Dragons: Dawn of the Dragon Racers (2014) BDRip-AVC от MediaClub | D sergej644 637 MB
Отечественные мультсериалы Маша и Медведь + Машины сказки + Машкины страшилки (2009-2014) BDRemux 1080р BOSS 97.02 GB
Отечественные мультсериалы Маша и медведь [01-50] / Машкины страшилки [01, 02] (Олег Ужинов, Денис Червяцов, Олег Кузовков) (2009-2015 Мультипликационный сериал) DVDRip, HDRip, BDRip, WEB-DLRip BOSS 6.13 GB
Показать сообщения:    

Текущее время: Сегодня 20:01

Часовой пояс: GMT



Вы не можете начинать темы
Вы не можете отвечать на сообщения
Вы не можете редактировать свои сообщения
Вы не можете удалять свои сообщения
Вы не можете голосовать в опросах
Вы не можете прикреплять файлы к сообщениям
Вы не можете скачивать файлы