Страшная воля богов / Kamisama no iu Toori (2014) WEBRip [Line]

 
Автор Сообщение

достали все ®

Пол:

Стаж: 1 год 8 месяцев

Сообщений: 6611



Награды: 12 (Подробнее)

Mega Seeder 4 (Количество: 1) Mega Seeder 3 (Количество: 1) Mega Releaser 2 (Количество: 1)
Торрент-статистика

Создавать темы 03-Май-2015 11:09

[Цитировать]

-Страшная воля богов / Kamisama no iu tori (2014) WEBRip«Daruma doll did it»- Производство: Japan / OLM, Toho Company, Toho Pictures
Жанр: ужасы, триллер
Режиссер: Такаси Миике
Продюсер: Юсукэ Исигуро, Сигедзи Маэда, Мисако Сака
Актеры: Рюноскэ Камики, Сёта Сомэтани, Рири Фуранки, Фукуси Сота, Ацуко Маеда, Хирона Ямадзаки, Дзинги Ириэ, Мио Юки, Нао Омори, Рена Шимура
Описание:
Сун Такахата тяготится своей заурядной жизнью, пока однажды в его классе не начинают происходить странные вещи. Школьникам являются загадочные игрушки во главе с куклой Дарума — божеством, приносящим счастье. Загадочные посетители призывают ребят принять участие в играх, цена которым — жизнь. Они подбадривают сомневающихся, рисуя радужные перспективы. Однако в случае отказа от участия им грозит немедленная смерть…

Возраст: 18+
Дата мировой премьеры: 18 октября 2014
Дата российской премьеры: 23 апреля 2015, «Русский Репортаж»
Продолжительность: 01:52:27
Качество: WEBRip
Перевод: профессиональный (полное дублирование) (Чистый звук)
Субтитры: отсутствуют
Видеокодек: MPEG-4 AVC/H.264
Битрейт видео: ~ 1 660 kbps
Размер кадра: 720 х 304 (2,35:1)
Аудиокодек: АС3, 2 ch
Битрейт аудио: 192 kbps

MediaInfo

Общее
Полное имя                               : F:\Strashnay.Volya.Bogov.2014.D.WEBRi.avi
Формат                                   : AVI
Формат/Информация                        : Audio Video Interleave
Размер файла                             : 1,46 Гбайт
Продолжительность                        : 1 ч. 52 м.
Общий поток                              : 1862 Кбит/сек
Название фильма                          : Strashnay.Volya.Bogov.2014.D.WEBRip.ELEKTRI4KA.uniongang.tv
Программа кодирования                    : VirtualDubMod 1.5.10.3 | [url=http://www.virtualdub-fr.org]www.virtualdub-fr.org[/url] || (build 2550/release)
Авторское право                          : UNIONGANG&RUSTORRENTS
Видео
Идентификатор                            : 0
Формат                                   : MPEG-4 Visual
Профиль формата                          : Advanced Simple@L5
Параметр BVOP формата                    : 2
Параметр QPel формата                    : Нет
Параметр GMC формата                     : Без точки перехода
Параметр матрицы формата                 : Default (MPEG)
Режим смешивания                         : Сжатый битовый поток
Идентификатор кодека                     : XVID
Идентификатор кодека/Подсказка           : XviD
Продолжительность                        : 1 ч. 52 м.
Битрейт                                  : 1660 Кбит/сек
Ширина                                   : 720 пикселей
Высота                                   : 304 пикселя
Соотношение сторон                       : 2,35:1
Частота кадров                           : 25,000 кадров/сек
Цветовое пространство                    : YUV
Субдискретизация насыщенности            : 4:2:0
Битовая глубина                          : 8 бит
Тип развёртки                            : Прогрессивная
Метод сжатия                             : С потерями
Бит/(Пиксели*Кадры)                      : 0.303
Размер потока                            : 1,30 Гбайт (89%)
Библиотека кодирования                   : XviD 73
Аудио
Идентификатор                            : 1
Формат                                   : AC-3
Формат/Информация                        : Audio Coding 3
Расширение режима                        : CM (complete main)
Параметр Endianness формата              : Big
Идентификатор кодека                     : 2000
Продолжительность                        : 1 ч. 52 м.
Вид битрейта                             : Постоянный
Битрейт                                  : 192 Кбит/сек
Каналы                                   : 2 канала
Расположение каналов                     : Front: L R
Частота                                  : 48,0 КГц
Битовая глубина                          : 16 бит
Метод сжатия                             : С потерями
Задержка видео                           : 24 мс.
Размер потока                            : 154 Мбайт (10%)
Выравнивание                             : Разделение по промежуткам
Продолжительность промежутка             : 40  мс. (1,00 видеокадр)
Время предзагрузки промежутка            : 500  мс.
-Скриншоты:
[Профиль] [ЛС]
Кто просматривает тему:

Форум Тема Автор Размер
Отечественная Классика Александр Александрович Бестужев-Марлинский - Страшное гадание [Любовь Конева, 2012] Magnat 66 MB
Фильмы 2011 года Бесстрашные ученики / The Disciples (2000) VHSRip от bittracker Белочка 731 MB
Разная литература Виктор Страшнов, Ольга Страшнова | Строим современный загородный дом. Современные материалы (2015) [FB2] достали все 10 MB
Зарубежные сериалы Все в порядке, это любовь / Просто это любовь / Ничего страшного, это любовь / It's Okay It's Love [01-16 из 16](2014) HDTVRip 720р | L2 Белочка 18.51 GB
Зарубежные сериалы Все в порядке, это любовь / Просто это любовь / Ничего страшного, это любовь / It's Okay It's Love [01-16 из 16](2014) HDTVRip | L2 Белочка 9.64 GB
Зарубежные мультфильмы Драконы: Гонки бесстрашных. Начало / Dragons: Dawn of the Dragon Racers (2014) BDRip-AVC от MediaClub | D sergej644 637 MB
Отечественные мультсериалы Маша и Медведь + Машины сказки + Машкины страшилки (2009-2014) BDRemux 1080р BOSS 97.02 GB
Отечественные мультсериалы Маша и медведь [01-50] / Машкины страшилки [01, 02] (Олег Ужинов, Денис Червяцов, Олег Кузовков) (2009-2015 Мультипликационный сериал) DVDRip, HDRip, BDRip, WEB-DLRip BOSS 6.13 GB
Показать сообщения:    

Текущее время: Сегодня 14:57

Часовой пояс: GMT



Вы не можете начинать темы
Вы не можете отвечать на сообщения
Вы не можете редактировать свои сообщения
Вы не можете удалять свои сообщения
Вы не можете голосовать в опросах
Вы не можете прикреплять файлы к сообщениям
Вы не можете скачивать файлы