Страшилы / The Frighteners (1996) BDRip 720p | P

 
Автор Сообщение

sergej644 ®

Пол:

Стаж: 4 года 11 месяцев

Сообщений: 6042

Откуда: Soviet Union



Награды: Нет

Торрент-статистика

Создавать темы 31-Янв-2015 00:52

[Цитировать]

Страшилы / The Frighteners
Страна: США, Новая Зеландия
Год выпуска: 1996
Жанр: ужасы, фэнтези, комедия
Продолжительность: 02:02:36
Перевод: Профессиональный (многоголосый, закадровый) Киномания
Режиссер: Питер Джексон / Peter Jackson
Актеры: Майкл Дж. Фокс, Трини Альварадо, Питер Добсон, Джон Эстин, Джеффри Комбс, Ди Уоллес-Стоун, Джейк Бьюзи, Чи МакБрайд, Джим Файф, Трой Эванс
Описание фильма: Экстрасенс Фрэнк Бэннистер, который зарабатывает на жизнь тем, что за скромное вознаграждение успешно избавляет дома от полтергейста, который сам предварительно наслал, сталкивается со страшным противником — вернувшимся с того света, а вернее, задержавшимся на этом после казни, маньяком-убийцей.

Файл
Качество видео: BDRip 720p Исходник: Blu-ray
Формат: MKV Видео кодек: MPEG-4 AVC Аудио кодек: AC3
Видео: AVC, 1280x544 (2.35:1) at 23.976 fps, AVC at 3377 kbps avg, 0.202 bit/pixel
Аудио: Russian: 48 kHz; AC3 5.1; 448.00 kbps avg; профессиональный, многоголосый, закадровый
Субтитры: Русские, английские
Навигация по главам: Есть

Скриншоты

MediaInfo

The Frighteners.1996.720p.BluRay.x264-LEONARDO_[scarabey.org].mkv
Format : Matroska
Format version : Version 2
File size : 3.34 GiB
Duration : 2h 2mn
Overall bit rate : 3 902 Kbps
Movie name : -=LEONARDO=-
Encoded date : UTC 2014-07-24 08:34:54
Writing application : mkvmerge v5.0.1 ('Es ist Sommer') built on Oct 23 2011 00:46:40
Writing library : libebml v1.2.2 + libmatroska v1.3.0
Attachment : Yes
Video
ID : 1
Format : AVC
Format/Info : Advanced Video Codec
Format profile : High@L4.1
Format settings, CABAC : Yes
Format settings, ReFrames : 9 frames
Codec ID : V_MPEG4/ISO/AVC
Duration : 2h 2mn
Bit rate : 3 377 Kbps
Width : 1 280 pixels
Height : 544 pixels
Display aspect ratio : 2.35:1
Frame rate : 23.976 fps
Color space : YUV
Chroma subsampling : 4:2:0
Bit depth : 8 bits
Scan type : Progressive
Bits/(Pixel*Frame) : 0.202
Stream size : 2.89 GiB (87%)
Writing library : x264 core 125 r2208 d9d2288
Encoding settings : cabac=1 / ref=9 / deblock=1:-1:-1 / analyse=0x3:0x133 / me=umh / subme=11 / psy=1 / psy_rd=1.00:0.00 / mixed_ref=1 / me_range=32 / chroma_me=1 / trellis=2 / 8x8dct=1 / cqm=0 / deadzone=21,11 / fast_pskip=0 / chroma_qp_offset=-2 / threads=12 / lookahead_threads=2 / sliced_threads=0 / nr=0 / decimate=1 / interlaced=0 / bluray_compat=0 / constrained_intra=0 / bframes=8 / b_pyramid=2 / b_adapt=2 / b_bias=0 / direct=1 / weightb=1 / open_gop=0 / weightp=2 / keyint=250 / keyint_min=23 / scenecut=40 / intra_refresh=0 / rc=crf / mbtree=0 / crf=20.0 / qcomp=0.60 / qpmin=0 / qpmax=69 / qpstep=4 / ip_ratio=1.10 / pb_ratio=1.10 / aq=1:1.00
Language : English
Default : Yes
Forced : No
Audio
ID : 2
Format : AC-3
Format/Info : Audio Coding 3
Mode extension : CM (complete main)
Codec ID : A_AC3
Duration : 2h 2mn
Bit rate mode : Constant
Bit rate : 448 Kbps
Channel(s) : 6 channels
Channel positions : Front: L C R, Side: L R, LFE
Sampling rate : 48.0 KHz
Bit depth : 16 bits
Compression mode : Lossy
Stream size : 393 MiB (11%)
Language : Russian
Default : Yes
Forced : Yes
Text #1
ID : 3
Format : UTF-8
Codec ID : S_TEXT/UTF8
Codec ID/Info : UTF-8 Plain Text
Language : Russian
Default : No
Forced : No
Text #2
ID : 4
Format : UTF-8
Codec ID : S_TEXT/UTF8
Codec ID/Info : UTF-8 Plain Text
Title : SDH
Language : English
Default : No
Forced : No
Menu
00:00:00.000 : :Intro
00:02:40.533 : :Main Titles
00:08:49.733 : :You've Ruptured My Lawn
00:09:59.116 : :Patricia Never Leaves the House
00:12:06.366 : :Newsflash, 1964
00:15:21.983 : :Callng Mr. Bannister
00:19:51.950 : :What's With the Number?
00:20:44.616 : :The Ectoplasmic Associates
00:22:42.816 : :Stuck in the Door
00:23:49.983 : :Two in the Shower
00:27:50.116 : :Time to Get Seriously Scary
00:29:14.366 : :Airborne Babies
00:31:14.233 : :Too Many Funerals
00:33:50.950 : :You Appear to Be Dead, Ray!
00:36:34.316 : :Drill Sergeant Hiles
00:37:59.366 : :The Premature Burial
00:41:46.483 : :Three for Dinner
00:45:35.566 : :The Soul Collector
00:49:27.666 : :Special Agent Dammers
00:52:19.033 : :Debra's Death
00:55:01.533 : :Dark Business in Fairwater
00:55:51.900 : :Museum Mayhem
00:59:57.566 : :The Reaper Strikes
01:01:16.150 : :Magda Passes Over
01:02:37.250 : :The Prime Suspect
01:04:09.116 : :Back Seat Passenger
01:04:44.033 : :The Interrogation
01:09:34.566 : :He Doesn't Believe Anymore
01:11:16.200 : :A Cry for Help
01:17:20.616 : :Ray Loses Faith
01:18:22.233 : :What Are You Afraid Of
01:20:43.066 : :Cyrus and Stuart to the Rescue
01:22:57.233 : :An Out of Body Experience
01:28:00.200 : :The Face of Death
01:33:04.066 : :He's Back
01:35:18.033 : :The Killer Couple
01:37:28.116 : :Fun with Knives
01:39:28.150 : :The Portal Strikes
01:40:13.233 : :Kitchen Chase
01:42:16.316 : :Guess That Makes You Number One
01:43:31.866 : :Blast From the Past
01:44:58.783 : :Dammer's Loses His Head
01:49:32.233 : :Fun in the Morgue
01:51:36.866 : :In the Mood for Vivisection
01:52:12.283 : :The Express Bus to Hell
01:54:47.983 : :Time to Go Home
01:56:48.900 : :Life After Death
01:58:31.366 : :End Titles
[Профиль] [ЛС]
Кто просматривает тему:

Форум Тема Автор Размер
Отечественная Классика Александр Александрович Бестужев-Марлинский - Страшное гадание [Любовь Конева, 2012] Magnat 66 MB
Фильмы 2011 года Бесстрашные ученики / The Disciples (2000) VHSRip от bittracker Белочка 731 MB
Разная литература Виктор Страшнов, Ольга Страшнова | Строим современный загородный дом. Современные материалы (2015) [FB2] достали все 10 MB
Зарубежные сериалы Все в порядке, это любовь / Просто это любовь / Ничего страшного, это любовь / It's Okay It's Love [01-16 из 16](2014) HDTVRip 720р | L2 Белочка 18.51 GB
Зарубежные сериалы Все в порядке, это любовь / Просто это любовь / Ничего страшного, это любовь / It's Okay It's Love [01-16 из 16](2014) HDTVRip | L2 Белочка 9.64 GB
Зарубежные мультфильмы Драконы: Гонки бесстрашных. Начало / Dragons: Dawn of the Dragon Racers (2014) BDRip-AVC от MediaClub | D sergej644 637 MB
Отечественные мультсериалы Маша и Медведь + Машины сказки + Машкины страшилки (2009-2014) BDRemux 1080р BOSS 97.02 GB
Отечественные мультсериалы Маша и медведь [01-50] / Машкины страшилки [01, 02] (Олег Ужинов, Денис Червяцов, Олег Кузовков) (2009-2015 Мультипликационный сериал) DVDRip, HDRip, BDRip, WEB-DLRip BOSS 6.13 GB
Показать сообщения:    

Текущее время: Сегодня 14:29

Часовой пояс: GMT



Вы не можете начинать темы
Вы не можете отвечать на сообщения
Вы не можете редактировать свои сообщения
Вы не можете удалять свои сообщения
Вы не можете голосовать в опросах
Вы не можете прикреплять файлы к сообщениям
Вы не можете скачивать файлы