Страховщик / Automata (2014) BDRip 1080p от 0ptimus | RUS Transfer | D, A

 
Автор Сообщение

sergej644 ®

Пол:

Стаж: 4 года 11 месяцев

Сообщений: 6037

Откуда: Soviet Union



Награды: Нет

Торрент-статистика

Создавать темы 18-Июн-2015 21:56

[Цитировать]

Страховщик
| Automata |
Информация о фильме
Название: Страховщик
Оригинальное название: Automata
Год выхода: 2014
Жанр: фантастика, триллер
Режиссер: Габе Ибаньес
В ролях: Антонио Бандерас, Биргитта Йорт Сёренсен, Мелани Гриффит, Дилан МакДермотт, Роберт Форстер, Тим МакИннерни, Энди Найман, Дэвид Райалл, Эндрю Тирнан, Криста Кэмпбелл
О фильме: 2044-й год. После природной катастрофы население Земли уменьшилось до 21 миллиона человек. Большую часть суши теперь занимает радиоактивная пустыня, а выжившие скрываются в городах за высокими стенами и искусственными облаками, которые созданы с помощью роботов — Пилигримов. Главный герой фильма — страховой агент компании по изготовлению роботов Жак Вокан обнаруживает, что изобретаемые роботы создаются не для эксплуатации, а для истребления.

Страна: Испания, Болгария
Студия: Green Moon, Nu Boyana Viburno
Продолжительность: 01:45:23
Перевод: Дублированный, авторский
Файл
Кодек: h.264
Качество: BDRip 1080p
Видео: 9732 Кбит/с, 1920x812, 25.000 кадр/с
Звук:
• №1: Русский (АС3, 6 ch, 640 Кбит/с) Дублированный
• №2: Русский (АС3, 6 ch, 640 Кбит/с) Авторский [Сергей Визгунов]
• №3: Русский (АС3, 6 ch, 640 Кбит/с) Авторский [Дмитрий Есарев, ненормативная лексика]
• №4: Английский (АС3, 6 ch, 640 Кбит/с)
Субтитры: Русские, английские (обычные, SDH)

MediaInfo

--------------------------------------------------------------------------------------
x264 [info]: frame I:1289 Avg QP:14.97 size:224118
x264 [info]: frame P:33682 Avg QP:16.66 size: 83087
x264 [info]: frame B:123113 Avg QP:18.30 size: 37404
--------------------------------------------------------------------------------------
Полное имя : Automata.2014.x264.BDRip.1080p.0ptimus.mkv
Формат : Matroska
Версия формата : Version 2
Размер файла : 9,05 Гбайт
Продолжительность : 1 ч. 45 м.
Общий поток : 12,3 Мбит/сек
Название фильма : Страховщик | Automata -RUS Transfer- [2014] -= BDRip (1080p) by 0ptimus =-
Дата кодирования : UTC 2015-06-08 14:25:17
Программа кодирования : mkvmerge v6.6.0 ('The Edge Of The In Between') built on Dec 1 2013 17:55:00
Библиотека кодирования : libebml v1.3.0 + libmatroska v1.4.1
Видео
Идентификатор : 1
Формат : AVC
Формат/Информация : Advanced Video Codec
Профиль формата : High@L4.1
Параметр CABAC формата : Да
Параметр ReFrames формата : 4 кадра
Идентификатор кодека : V_MPEG4/ISO/AVC
Продолжительность : 1 ч. 45 м.
Битрейт : 9732 Кбит/сек
Ширина : 1920 пикселей
Высота : 812 пикселей
Соотношение сторон : 2,35:1
Режим частоты кадров : Постоянный
Частота кадров : 25,000 кадров/сек
Цветовое пространство : YUV
Субдискретизация насыщенности : 4:2:0
Битовая глубина : 8 бит
Тип развёртки : Прогрессивная
Бит/(Пиксели*Кадры) : 0.250
Размер потока : 6,99 Гбайт (77%)
Заголовок : Rip by 0ptimus
Библиотека кодирования : x264 core 133 r2334 a3ac64b
Настройки программы : cabac=1 / ref=4 / deblock=1:-3:-3 / analyse=0x3:0x113 / me=umh / subme=10 / psy=1 / psy_rd=1.00:0.20 / mixed_ref=1 / me_range=32 / chroma_me=1 / trellis=2 / 8x8dct=1 / cqm=0 / deadzone=21,11 / fast_pskip=0 / chroma_qp_offset=-3 / threads=3 / lookahead_threads=1 / sliced_threads=0 / nr=0 / decimate=0 / interlaced=0 / bluray_compat=0 / constrained_intra=0 / bframes=9 / b_pyramid=2 / b_adapt=2 / b_bias=0 / direct=3 / weightb=1 / open_gop=0 / weightp=2 / keyint=250 / keyint_min=25 / scenecut=40 / intra_refresh=0 / rc_lookahead=40 / rc=2pass / mbtree=0 / bitrate=9732 / ratetol=1.0 / qcomp=0.60 / qpmin=0 / qpmax=69 / qpstep=4 / cplxblur=20.0 / qblur=0.5 / vbv_maxrate=50000 / vbv_bufsize=62500 / nal_hrd=none / ip_ratio=1.40 / pb_ratio=1.30 / aq=1:1.00
Язык : English
Default : Да
Forced : Да
Аудио #1
Идентификатор : 2
Формат : AC-3
Формат/Информация : Audio Coding 3
Расширение режима : CM (complete main)
Параметр Endianness формата : Big
Идентификатор кодека : A_AC3
Продолжительность : 1 ч. 45 м.
Вид битрейта : Постоянный
Битрейт : 640 Кбит/сек
Каналы : 6 каналов
Расположение каналов : Front: L C R, Side: L R, LFE
Частота : 48,0 КГц
Битовая глубина : 16 бит
Метод сжатия : С потерями
Размер потока : 482 Мбайт (5%)
Заголовок : Дублированный AC3 5.1 @ 640 kbps
Язык : Russian
Default : Да
Forced : Да
Аудио #2
Идентификатор : 3
Формат : AC-3
Формат/Информация : Audio Coding 3
Расширение режима : CM (complete main)
Параметр Endianness формата : Big
Идентификатор кодека : A_AC3
Продолжительность : 1 ч. 45 м.
Вид битрейта : Постоянный
Битрейт : 640 Кбит/сек
Каналы : 6 каналов
Расположение каналов : Front: L C R, Side: L R, LFE
Частота : 48,0 КГц
Битовая глубина : 16 бит
Метод сжатия : С потерями
Размер потока : 482 Мбайт (5%)
Заголовок : Авторский [Сергей Визгунов] AC3 5.1 @ 640 kbps
Язык : Russian
Default : Нет
Forced : Нет
Аудио #3
Идентификатор : 4
Формат : AC-3
Формат/Информация : Audio Coding 3
Расширение режима : CM (complete main)
Параметр Endianness формата : Big
Идентификатор кодека : A_AC3
Продолжительность : 1 ч. 45 м.
Вид битрейта : Постоянный
Битрейт : 640 Кбит/сек
Каналы : 6 каналов
Расположение каналов : Front: L C R, Side: L R, LFE
Частота : 48,0 КГц
Битовая глубина : 16 бит
Метод сжатия : С потерями
Размер потока : 482 Мбайт (5%)
Заголовок : Авторский [Дмитрий Есарев, ненорматив] AC3 5.1 @ 640 kbps
Язык : Russian
Default : Нет
Forced : Нет
Аудио #4
Идентификатор : 5
Формат : AC-3
Формат/Информация : Audio Coding 3
Расширение режима : CM (complete main)
Параметр Endianness формата : Big
Идентификатор кодека : A_AC3
Продолжительность : 1 ч. 45 м.
Вид битрейта : Постоянный
Битрейт : 640 Кбит/сек
Каналы : 6 каналов
Расположение каналов : Front: L C R, Side: L R, LFE
Частота : 48,0 КГц
Битовая глубина : 16 бит
Метод сжатия : С потерями
Размер потока : 482 Мбайт (5%)
Заголовок : AC3 5.1 @ 640 kbps
Язык : English
Default : Нет
Forced : Нет
Текст #1
Идентификатор : 6
Формат : UTF-8
Идентификатор кодека : S_TEXT/UTF8
Идентификатор кодека/Информация : UTF-8 Plain Text
Язык : Russian
Default : Нет
Forced : Нет
Текст #2
Идентификатор : 7
Формат : UTF-8
Идентификатор кодека : S_TEXT/UTF8
Идентификатор кодека/Информация : UTF-8 Plain Text
Язык : English
Default : Нет
Forced : Нет
Текст #3
Идентификатор : 8
Формат : UTF-8
Идентификатор кодека : S_TEXT/UTF8
Идентификатор кодека/Информация : UTF-8 Plain Text
Заголовок : SDH
Язык : English
Default : Нет
Forced : Нет
Меню
00:00:00.000 : :Chapter 01
00:09:36.880 : :Chapter 02
00:15:56.480 : :Chapter 03
00:23:58.840 : :Chapter 04
00:30:36.160 : :Chapter 05
00:40:57.680 : :Chapter 06
00:48:48.920 : :Chapter 07
00:54:35.200 : :Chapter 08
01:02:48.040 : :Chapter 09
01:09:40.600 : :Chapter 10
01:18:26.000 : :Chapter 11
01:29:58.280 : :Chapter 12
01:45:23.320 : :Chapter 13

Скриншоты

[Профиль] [ЛС]
Показать сообщения:    

Текущее время: Сегодня 15:54

Часовой пояс: GMT



Вы не можете начинать темы
Вы не можете отвечать на сообщения
Вы не можете редактировать свои сообщения
Вы не можете удалять свои сообщения
Вы не можете голосовать в опросах
Вы не можете прикреплять файлы к сообщениям
Вы не можете скачивать файлы