Страховщик / Automata (Габе Ибаньес / Gabe Ibáñez) [2014, Испания, Болгария, фантастика, триллер, BDRip] Dub

 
Автор Сообщение

TorrentFilm ®

Пол:

Стаж: 2 года

Сообщений: 7741



Награды: Нет

Торрент-статистика

Создавать темы 29-Дек-2014 00:15

[Цитировать]

Страховщик / Automata- Страна: Испания, Болгария
Жанр: фантастика, триллер
Год выпуска: 2014
Продолжительность: 01:49:54
Перевод: Профессиональный (дублированный) |Лицензия BD RUS|
Cубтитры: Нет-Режиссер: Габе Ибаньес / Gabe Ibáñez-В ролях: Антонио Бандерас (Jacq Vaucan), Биргитта Йорт Сёренсен (Rachel Vaucan), Мелани Гриффит (Dra. Dupre / Cleo, озвучка), Дилан МакДермотт (Wallace), Роберт Форстер (Robert Bold), Тим МакИннерни (Vernon Conway), Энди Найман (Ellis), Дэвид Райалл (Dominic Hawk), Эндрю Тирнан (Manager), Криста Кэмпбелл (ROC Technician), Кристина Там (Morgue Technician), Дэнни Киррейн (Muniesa Technician)-Описание: Главным героем фильма — страховой агент компании по изготовлению роботов Жак Вокан, который обнаруживает, что изобретаемые роботы создаются не для эксплуатации, а для истребления.-| IMDB | КиноПоиск | Сэмпл |-Премьера (мир) 20 сентября 2014, ...
Премьера (РФ) 16 октября 2014, «Парадиз»
Релиз на DVD 9 декабря 2014, «Парадиз / Активижен», ...
Релиз на Blu-Ray 9 декабря 2014, «Парадиз / Активижен», ...-Качество видео: BDRip |исх. BluRay 1080p|
Формат видео: AVI
Видео: Xvid 720x304 (2.37:1), 23.976 fps, XviD build 50 ~1526 kbps avg, 0.29 bit/pixel
Аудио: 48 kHz, AC3 Dolby Digital, 3/2 (L,C,R,l,r) + LFE ch, ~384 kbps-

MediaInfo

General
Complete name : D:\FILMS\Strahovschik.2014.D.BDRip.1.47Gb_by_Twi7ter.avi
Format : AVI
Format/Info : Audio Video Interleave
File size : 1.47 GiB
Duration : 1h 49mn
Overall bit rate : 1 919 Kbps
Movie name : Strahovschik.2014.D.BDRip.1.47Gb_by_Twi7ter / Automata.2014.D.BDRip.1.46Gb_by_Twi7ter
Director : Twi7ter / Twi7ter
Genre : Fantasy/Thriller / Fantasy/Thriller
Writing application : VirtualDubMod 1.5.10.3 (build 2550/release)
Original source form/Name : Movie / Movie
Video
ID : 0
Format : MPEG-4 Visual
Format profile : Advanced Simple@L5
Format settings, BVOP : 2
Format settings, QPel : No
Format settings, GMC : No warppoints
Format settings, Matrix : Default (MPEG)
Codec ID : XVID
Codec ID/Hint : XviD
Duration : 1h 49mn
Bit rate : 1 526 Kbps
Width : 720 pixels
Height : 304 pixels
Display aspect ratio : 2.35:1
Frame rate : 23.976 fps
Color space : YUV
Chroma subsampling : 4:2:0
Bit depth : 8 bits
Scan type : Progressive
Compression mode : Lossy
Bits/(Pixel*Frame) : 0.291
Stream size : 1.17 GiB (80%)
Writing library : XviD 1.2.1 (UTC 2008-12-04)
Audio
ID : 1
Format : AC-3
Format/Info : Audio Coding 3
Mode extension : CM (complete main)
Format settings, Endianness : Big
Codec ID : 2000
Duration : 1h 49mn
Bit rate mode : Constant
Bit rate : 384 Kbps
Channel(s) : 6 channels
Channel positions : Front: L C R, Side: L R, LFE
Sampling rate : 48.0 KHz
Bit depth : 16 bits
Compression mode : Lossy
Stream size : 302 MiB (20%)
Alignment : Aligned on interleaves
Interleave, duration : 42 ms (1.00 video frame)
Interleave, preload duratio : 512 ms

Скриншот c названием фильма

Скриншоты

[Профиль] [ЛС]
Показать сообщения:    

Текущее время: Сегодня 12:13

Часовой пояс: GMT



Вы не можете начинать темы
Вы не можете отвечать на сообщения
Вы не можете редактировать свои сообщения
Вы не можете удалять свои сообщения
Вы не можете голосовать в опросах
Вы не можете прикреплять файлы к сообщениям
Вы не можете скачивать файлы