Страховщик / Autómata (Габе Ибаньес / Gabe Ibáñez) [2014, Испания, Болгария, фантастика, триллер, BDRip-AVC] Dub + Sub Rus, Eng + Original Eng

 
Автор Сообщение

TorrentFilm ®

Пол:

Стаж: 2 года

Сообщений: 7741



Награды: Нет

Торрент-статистика

Создавать темы 28-Дек-2014 00:31

[Цитировать]

Страховщик / Autómata«Ваше время подошло к концу. Наше только начинается»- Страна: Испания, Болгария
Жанр: фантастика, триллер
Год выпуска: 2014
Продолжительность: 01:49:54
Перевод: Профессиональный (дублированный)
Cубтитры: Rus, Eng
Оригинальная аудиодорожка: английский
Режиссер: Габе Ибаньес / Gabe Ibáñez
В ролях
Антонио Бандерас / Antonio Banderas (Jacq Vaucan)
Биргитта Йорт Сёренсен (Rachel Vaucan), Мелани Гриффит (Dra. Dupre / Cleo, озвучка), Дилан МакДермотт (Wallace), Роберт Форстер (Robert Bold), Тим МакИннерни (Vernon Conway), Энди Найман (Ellis), Дэвид Райалл (Dominic Hawk), Эндрю Тирнан (Manager), Криста Кэмпбелл (ROC Technician), Кристина Там (Morgue Technician), Дэнни Киррейн (Muniesa Technician)-Описание2044-й год. После природной катастрофы население Земли уменьшилось до 21 миллиона человек. Большую часть суши теперь занимает радиоактивная пустыня, а выжившие скрываются в городах за высокими стенами и искусственными облаками. Выжившие построили роботов, чтобы помочь им существовать в суровых климатических условиях. Эти роботы имеют два неизменных протокола: они должны сохранить человеческие жизни, и они не могут изменить себя. После одного инцидента страховщик Жак Вокан начинает подозревать, что роботы научились изменять себя.-Сэмпл

IMDb: 6.10 (13 636)
Качество видео: BDRip-AVC Automata.2014.BDRemux.(1080p).ExKinoRay
Формат видео: MKV
Видео: AVC 2316 Kbps 1040 x 442 (2.353) 23.976 fps
Аудио: AC-3 384 Kbps 6 channels, 48.0 KHz Rus DUB
Аудио 2: AC-3 384 Kbps 6 channels, 48.0 KHz Eng
Формат субтитров: softsub (SRT)

FAQ по просмотру MKV/h.264 | Хеш файла [info_hash]

FAQ по просмотру MKV/h.264/AAC
Хеш файла [info_hash] (Хеш-сумма)
или проще говоря хеш файла является уникальным идентификатором файла (раздачи)

MediaInfo | LogLog

x264 [info]: frame I:1448 Avg QP:16.07 size: 59315
x264 [info]: frame P:31355 Avg QP:17.37 size: 25707
x264 [info]: frame B:125298 Avg QP:19.43 size: 8513
x264 [info]: consecutive B-frames: 2.0% 2.1% 5.5% 11.7% 14.3% 50.4% 6.8% 1.3% 1.7% 1.2% 1.0% 1.0% 1.1%
x264 [info]: mb I I16..4: 7.2% 77.7% 15.1%
x264 [info]: mb P I16..4: 0.5% 14.2% 1.0% P16..4: 29.0% 35.1% 16.1% 2.1% 0.2% skip: 1.9%
x264 [info]: mb B I16..4: 0.0% 0.7% 0.1% B16..8: 38.3% 23.1% 4.7% direct: 5.5% skip:27.5% L0:46.6% L1:44.6% BI: 8.8%
x264 [info]: 8x8 transform intra:87.6% inter:59.4%
x264 [info]: coded y,uvDC,uvAC intra: 95.7% 85.1% 65.9% inter: 29.5% 20.0% 3.7%
x264 [info]: i16 v,h,dc,p: 18% 12% 9% 61%
x264 [info]: i8 v,h,dc,ddl,ddr,vr,hd,vl,hu: 8% 7% 13% 10% 13% 12% 12% 11% 13%
x264 [info]: i4 v,h,dc,ddl,ddr,vr,hd,vl,hu: 13% 8% 3% 9% 15% 14% 14% 11% 13%
x264 [info]: i8c dc,h,v,p: 45% 26% 17% 12%
x264 [info]: Weighted P-Frames: Y:7.5% UV:3.3%
x264 [info]: ref P L0: 43.1% 10.2% 17.1% 6.8% 5.8% 4.1% 3.9% 2.1% 2.1% 1.6% 1.6% 1.3% 0.2% 0.0%
x264 [info]: ref B L0: 65.7% 12.8% 7.0% 3.9% 2.9% 2.5% 2.0% 1.3% 1.1% 0.7% 0.3%
x264 [info]: ref B L1: 91.7% 8.3%
x264 [info]: kb/s:2376.19
x264 [total]: encoded 158101 frames, 11.71 fps, 2376.19 kb/s, duration 3:45:05.23
Format : Matroska
Format version : Version 4 / Version 2
File size : 2.42 GiB
Duration : 1h 49mn
Overall bit rate : 3 146 Kbps
Encoded date : UTC 2014-12-17 09:23:26
Writing application : mkvmerge v6.7.0 ('Back to the Ground') 32bit built on Jan 8 2014 15:03:17
Writing library : libebml v1.3.0 + libmatroska v1.4.1
Video
ID : 1
Format : AVC
Format/Info : Advanced Video Codec
Format profile : High@L4.1
Format settings, CABAC : Yes
Format settings, ReFrames : 12 frames
Codec ID : V_MPEG4/ISO/AVC
Duration : 1h 49mn
Bit rate : 2 316 Kbps
Width : 1 040 pixels
Height : 442 pixels
Display aspect ratio : 2.35:1
Frame rate mode : Constant
Frame rate : 23.976 fps
Color space : YUV
Chroma subsampling : 4:2:0
Bit depth : 8 bits
Scan type : Progressive
Bits/(Pixel*Frame) : 0.210
Stream size : 1.78 GiB (74%)
Title : Automata [torrentfilm.net]
Writing library : x264 core 142 r2453kMod ea0ca51
Encoding settings : cabac=1 / ref=12 / deblock=1:-2:-1 / analyse=0x3:0x133 / me=umh / subme=11 / psy=1 / fade_compensate=0.00 / psy_rd=1.00:0.05 / mixed_ref=1 / me_range=32 / chroma_me=1 / trellis=2 / 8x8dct=1 / cqm=0 / deadzone=21,11 / fast_pskip=0 / chroma_qp_offset=-3 / threads=12 / lookahead_threads=3 / sliced_threads=0 / nr=0 / decimate=1 / interlaced=0 / bluray_compat=0 / constrained_intra=0 / fgo=0 / bframes=12 / b_pyramid=2 / b_adapt=2 / b_bias=0 / direct=1 / weightb=1 / open_gop=0 / weightp=2 / keyint=250 / keyint_min=23 / scenecut=40 / intra_refresh=0 / rc_lookahead=60 / rc=crf / mbtree=0 / crf=18.5000 / qcomp=0.60 / qpmin=0 / qpmax=69 / qpstep=4 / vbv_maxrate=50000 / vbv_bufsize=62500 / crf_max=0.0 / nal_hrd=none / filler=0 / ip_ratio=1.40 / pb_ratio=1.30 / aq=3:0.90
Language : English
Default : Yes
Forced : No
Audio #1
ID : 2
Format : AC-3
Format/Info : Audio Coding 3
Mode extension : CM (complete main)
Format settings, Endianness : Big
Codec ID : A_AC3
Duration : 1h 49mn
Bit rate mode : Constant
Bit rate : 384 Kbps
Channel(s) : 6 channels
Channel positions : Front: L C R, Side: L R, LFE
Sampling rate : 48.0 KHz
Bit depth : 16 bits
Compression mode : Lossy
Stream size : 302 MiB (12%)
Title : Dub
Language : Russian
Default : Yes
Forced : No
Audio #2
ID : 3
Format : AC-3
Format/Info : Audio Coding 3
Mode extension : CM (complete main)
Format settings, Endianness : Big
Codec ID : A_AC3
Duration : 1h 49mn
Bit rate mode : Constant
Bit rate : 384 Kbps
Channel(s) : 6 channels
Channel positions : Front: L C R, Side: L R, LFE
Sampling rate : 48.0 KHz
Bit depth : 16 bits
Compression mode : Lossy
Stream size : 302 MiB (12%)
Title : Original
Language : English
Default : No
Forced : No
Text #1
ID : 4
Format : UTF-8
Codec ID : S_TEXT/UTF8
Codec ID/Info : UTF-8 Plain Text
Language : Russian
Default : No
Forced : No
Text #2
ID : 5
Format : UTF-8
Codec ID : S_TEXT/UTF8
Codec ID/Info : UTF-8 Plain Text
Language : English
Default : No
Forced : No
Menu
00:00:00.000 : en:Chapter 01
00:09:40.454 : en:Chapter 02
00:18:46.917 : en:Chapter 03
00:28:32.836 : en:Chapter 04
00:39:07.094 : en:Chapter 05
00:47:33.475 : en:Chapter 06
00:56:55.954 : en:Chapter 07
01:06:05.503 : en:Chapter 08
01:17:27.809 : en:Chapter 09
01:26:11.958 : en:Chapter 10
01:34:06.474 : en:Chapter 11
01:44:53.412 : en:Chapter 12
01:49:54.087 : en:Chapter 13

Скриншоты | Rip vs Source

Source
[Профиль] [ЛС]
Показать сообщения:    

Текущее время: Сегодня 01:26

Часовой пояс: GMT



Вы не можете начинать темы
Вы не можете отвечать на сообщения
Вы не можете редактировать свои сообщения
Вы не можете удалять свои сообщения
Вы не можете голосовать в опросах
Вы не можете прикреплять файлы к сообщениям
Вы не можете скачивать файлы