Стратегия Оппенгеймера / Norman: The Moderate Rise and Tragic Fall of a New York Fixer (2016) BDRip 720p | L

 
Автор Сообщение

BOSS ®

Пол:

Стаж: 3 года

Сообщений: 7616

Откуда: ODESSA



Награды: 22 (Подробнее)

Top Seeder 5 (Количество: 1) За внесенный вклад в развитие сайта (Количество: 1) Mega Seeder 4 (Количество: 1)
Торрент-статистика

Создавать темы 31-Июл-2017 15:41

[Цитировать]

Жанр: Драма, Триллер
Режиссер: Джозеф Седар
Актеры: Ричард Гир, Лиор Ашкенази, Майкл Шин, Стив Бушеми, Йехуда Альмагор, Нета Рискин, Джош Чарльз, Дэн Стивенс, Харрис Юлин, Довале Гликман
Описание:
Уже немолодой Норман Оппенгеймер из кожи вон лезет, чтобы обзавестись полезными контактами и связями. Однажды ему везёт, и он завязывает личное знакомство с замминистра Израиля. Три года спустя этот политик становится премьер-министром, и жизнь Нормана резко меняется.

Производство: Израиль, США
Продолжительность: 01:59:20
Перевод: Любительский (многоголосый) ["Синема УС"]
Субтитры: Отсутствуют
Рейтинг MPAA: R (лицам до 17 лет обязательно присутствие взрослого)
Дата мировой премьеры: 3 сентября 2016
Присутствуют аудио и видео вставки рекламы
Качество видео: BDRip 720p
Видео: AVC/H.264, 1280x692 (1,85:1), 5126 Kbps, 23,976 fps
Аудио: AC3, 2 ch, 448 Kbps

M/I

Общее
Уникальный идентификатор : 226024274463932323435156307563953301074 (0xAA0AB11C16B130B0BF7B9DE247F0A652)
Полное имя : D:ЗагрузкиСтратегия Оппенгеймера (2016) BDRip.mkv
Формат : Matroska
Версия формата : Version 2
Размер файла : 4,65 Гбайт
Продолжительность : 1 ч. 59 м.
Режим общего битрейта : Переменный
Общий поток : 5576 Кбит/сек
Дата кодирования : UTC 2017-07-26 12:59:22
Программа кодирования : mkvmerge v8.3.0 ('Over the Horizon') 64bit
Библиотека кодирования : libebml v1.3.1 + libmatroska v1.4.2
Видео
Идентификатор : 1
Формат : AVC
Формат/Информация : Advanced Video Codec
Профиль формата : High@L4.1
Параметр CABAC формата : Да
Параметр RefFrames формата : 9 кадров
Идентификатор кодека : V_MPEG4/ISO/AVC
Продолжительность : 1 ч. 59 м.
Вид битрейта : Переменный
Битрейт : 5126 Кбит/сек
Максимальный битрейт : 5700 Кбит/сек
Ширина : 1280 пикселей
Высота : 692 пикселя
Соотношение сторон : 1,85:1
Режим частоты кадров : Постоянный
Частота кадров : 23,976 (24000/1001) кадра/сек
Стандарт вещания : Component
Цветовое пространство : YUV
Субдискретизация насыщенности : 4:2:0
Битовая глубина : 8 бит
Тип развёртки : Прогрессивная
Бит/(Пиксели*Кадры) : 0.241
Размер потока : 4,27 Гбайт (92%)
Default : Да
Forced : Нет
Цветовой диапазон : Limited
Основные цвета : BT.709
Характеристики трансфера : BT.709
Коэффициенты матрицы : BT.709
Аудио
Идентификатор : 2
Формат : AC-3
Формат/Информация : Audio Coding 3
Параметр Endianness формата : Big
Идентификатор кодека : A_AC3
Продолжительность : 1 ч. 59 м.
Вид битрейта : Постоянный
Битрейт : 448 Кбит/сек
Каналы : 2 канала
Расположение каналов : Front: L R
Частота : 48,0 КГц
Частота кадров : 31,250 кадров/сек (1536 SPF)
Битовая глубина : 16 бит
Метод сжатия : С потерями
Размер потока : 382 Мбайт (8%)
ServiceKind : Complete Main
Default : Да
Forced : Нет

Скриншоты

[Профиль] [ЛС]
Кто просматривает тему:

Форум Тема Автор Размер
Компьютерная литература (Программирование) Stanek W.R. / Станек У.Р. - Microsoft SQL Server 2005. Administrator’s Pocket Consultant / Microsoft SQL Server 2005. Справочник администратора [2008, PDF, RUS] TorrentFilm 9 MB
Программы [Разное] VideoReg / Видеорегистратор v5.0b6 [Android 1.5+, RUS] TorrentFilm 241 KB
Программы [Разное] VideoReg Pro/Видеорегистратор v6.81 [Android 1.5+, RUS] TorrentFilm 14 MB
Компьютерная литература (Программирование) В подлиннике - Чекмарев А.Н. - Windows 7. Руководство администратора [2010, PDF, RUS] TorrentFilm 68 MB
Военное дело, авиация и вооружение Виктор Марковский, Игорь Приходченко - Ту-22. Стратегический бомбардировщик, ракетоносец, разведчик (2016) PDF BOSS 124 MB
Боевики, детективы, триллеры Джон Ле Карре - Ночной администратор (2016) MP3 Swager 1.12 GB
Зарубежные сериалы Ночной администратор / The Night Manager [S01] (2016) Blu-ray 1080p | LostFilm, Jaskier Russian Mafia 91.83 GB
Зарубежные сериалы Ночной администратор / The Night Manager [S01] (2016) WEB-DL 1080p от qqss44 | LostFilm Russian Mafia 13.91 GB
Показать сообщения:    

Текущее время: Сегодня 18:59

Часовой пояс: GMT



Вы не можете начинать темы
Вы не можете отвечать на сообщения
Вы не можете редактировать свои сообщения
Вы не можете удалять свои сообщения
Вы не можете голосовать в опросах
Вы не можете прикреплять файлы к сообщениям
Вы не можете скачивать файлы