Страсть не знает преград / Alle Anderen (Марен Эд / Maren Ade) [2009, Германия, драма, мелодрама, DVDRip] DVO (Селена Интернешнл) + Original (Ger)

 
Автор Сообщение

painkiller ®

Стаж: 2 года 3 месяца

Сообщений: 582



Награды: Нет

Торрент-статистика

Создавать темы 15-Авг-2014 01:08

[Цитировать]

Страсть не знает преград / Alle Anderen Год выпуска: 2009
Страна: Германия
Жанр: драма, мелодрама
Продолжительность: 01:58:53
Перевод: профессиональный (двухголосый закадровый) - Селена Интернешнл
Оригинал: немецкий
Субтитры: нет
Режиссер: Марен Эд / Maren Ade
В ролях:
Ларс Эйдингер, Биргит Минихмайр, Ханс-Йохен Вагнер, Николь Маришка, Мира Партеке, Атеф Фогель, Паула Хартманн, Карина Визе, Лаура Дзедда, Клаудио Мелис
Описание:
Крис и Гитти — молодая пара, приехавшая отдыхать на Сардинию. Он — молодой архитектор, она работает в рекламном агентстве. Дважды их одиночество нарушают две другие молодые пары: первые только что обзавелись потомством, вторые собираются это сделать, и из-за этого почти незаметно в отношениях Криса и Гитти появляются разногласия и взаимное раздражение.

Качество видео: DVDRip (Исходник: DVD9)
Формат видео: AVI
Видео: 704x384 (1.83:1), 25 fps, XviD build 73 ~1364 kbps avg, 0.20 bit/pixel
Аудио#1: 48 kHz, AC3 Dolby Digital, 2/0 (L,R) ch, ~192 kbps - Russian
Аудио#2: 48 kHz, AC3 Dolby Digital, 2/0 (L,R) ch, ~192 kbps - German
Скачать: Сэмпл

Сравнение

http://torrentfilm.net/forum/viewtopic.php?t=3762460
http://screenshotcomparison.com/comparison/64665
В том рипе присутствует логотип в нижнем левом углу, плюс первая треть фильма в основном выглядит так:

MediaInfo

General
Complete name : F:\Рипы\Страсть не знает преград\Strastj.ne.znaet.pregrad.2009.DVDRip.avi
Format : AVI
Format/Info : Audio Video Interleave
File size : 1.47 GiB
Duration : 1h 58mn
Overall bit rate : 1 764 Kbps
Writing application : VirtualDubMod 1.5.10.2 (build 2540/release)
Writing library : VirtualDubMod build 2540/release
Video
ID : 0
Format : MPEG-4 Visual
Format profile : Advanced Simple@L5
Format settings, BVOP : 1
Format settings, QPel : No
Format settings, GMC : No warppoints
Format settings, Matrix : Default (MPEG)
Codec ID : XVID
Codec ID/Hint : XviD
Duration : 1h 58mn
Bit rate : 1 366 Kbps
Width : 704 pixels
Height : 384 pixels
Display aspect ratio : 1.85:1
Frame rate : 25.000 fps
Color space : YUV
Chroma subsampling : 4:2:0
Bit depth : 8 bits
Scan type : Progressive
Compression mode : Lossy
Bits/(Pixel*Frame) : 0.202
Stream size : 1.13 GiB (77%)
Writing library : XviD 73
Audio #1
ID : 1
Format : AC-3
Format/Info : Audio Coding 3
Mode extension : CM (complete main)
Format settings, Endianness : Big
Codec ID : 2000
Duration : 1h 58mn
Bit rate mode : Constant
Bit rate : 192 Kbps
Channel(s) : 2 channels
Channel positions : Front: L R
Sampling rate : 48.0 KHz
Bit depth : 16 bits
Compression mode : Lossy
Stream size : 163 MiB (11%)
Alignment : Split accross interleaves
Interleave, duration : 40 ms (1.00 video frame)
Interleave, preload duration : 500 ms
Title : Russian
Audio #2
ID : 2
Format : AC-3
Format/Info : Audio Coding 3
Mode extension : CM (complete main)
Format settings, Endianness : Big
Codec ID : 2000
Duration : 1h 58mn
Bit rate mode : Constant
Bit rate : 192 Kbps
Channel(s) : 2 channels
Channel positions : Front: L R
Sampling rate : 48.0 KHz
Bit depth : 16 bits
Compression mode : Lossy
Stream size : 163 MiB (11%)
Alignment : Split accross interleaves
Interleave, duration : 40 ms (1.00 video frame)
Interleave, preload duration : 500 ms
Title : German

Скриншоты

[Профиль] [ЛС]

Создавать темы 06-Авг-2015 23:11 (спустя 11 месяцев 22 дня)

Топик был перенесен из форума Фильмы до 2014 года в форум Фильмы до 2012 года
sergej644
 

Создавать темы 12-Июн-2016 08:48 (спустя 1 год 9 месяцев)

Топик был перенесен из форума Фильмы 2011 года в форум Фильмы 2009 года
Russian Mafia
 
Кто просматривает тему:

Форум Тема Автор Размер
Chanson (Шансон) VA - В Плену У Страсти. Лирика Русского Шансона - 2015, MP3, 256 kbps Magnat 703 MB
365 365: Вызов зодчим. Страсбургский собор / Le Défi des Bâtisseurs. La Cathédrale de Strasbourg / The builder's challenge - Strasbourg (Марк Ямпольски / Marc Ja... skorpionN 750 MB
Зарубежные сериалы Анатомия страсти (Анатомия Грей) / Grey's Anatomy [13x01-08 из 24] (2016) HDTV 720p | Jetvis Studio Zithylord 8.04 GB
Зарубежные сериалы Анатомия страсти / Grey's Anatomy [S01-11] (2005-2014) WEB-DLRip, HDTVRip | CTC, Fox Life Russian Mafia 109.28 GB
Зарубежные сериалы Анатомия страсти / Анатомия Грей / Grey's Anatomy [S01-10] (2005-2013) WEB-DLRip, HDTVRip | CTC, Fox Life Белочка 97.06 GB
Зарубежные сериалы Анатомия страсти / Анатомия Грей / Grey's Anatomy [S01] (2005) WEB-DLRip | СТС Белочка 3.83 GB
Зарубежные сериалы Анатомия страсти / Анатомия Грей / Grey's Anatomy [S02] (2005-2006) WEB-DLRip | СТС Белочка 11.39 GB
Зарубежные сериалы Анатомия страсти / Анатомия Грей / Grey's Anatomy [S03] (2006-2007) WEB-DLRip | СТС Белочка 10.78 GB
Показать сообщения:    

Текущее время: Сегодня 02:37

Часовой пояс: GMT



Вы не можете начинать темы
Вы не можете отвечать на сообщения
Вы не можете редактировать свои сообщения
Вы не можете удалять свои сообщения
Вы не можете голосовать в опросах
Вы не можете прикреплять файлы к сообщениям
Вы не можете скачивать файлы