Страсти по Владимиру (1990) SATRip

 
Автор Сообщение

KottoSoft ®

Стаж: 2 года

Сообщений: 119



Награды: Нет

Торрент-статистика

Создавать темы 27-Дек-2014 07:30

[Цитировать]

-Страсти по Владимиру (1990) SATRip-Киностудия: Ленфильм
Год выпуска: 1990
Жанр: Комедия
Описание фильма:
Действие фильма происходит в кабинете руководителя одного из НИИ. Решается проблема, быть или не быть концерту Высоцкого в клубе института. Начальство категорически против, но все сотрудники уже оповещены и с нетерпением ожидают выступления любимого артиста...
По пьесе Марка Розовского "Концерт Высоцкого в НИИ".
Режиссер: Марк Розовский
Актеры: Владимир Долинский, Галина Борисова, Вера Улик, Игорь Старосельцев, Александр Лукаш, Семён Фарада, Петр Козюлин, Александр Иванов, Александр Столяров, Александр Вилков, Юрий Голубцов, Александр Миронов, Андрей Молотков, Андрей Ургант, Владимир Юматов, Алексей Селезнев
Продолжительность: 01:55:19
Качество видео: SATRip

Видеокодек: Xvid
Битрейт видео: 2400 Kbps
Размер кадра: 688x512
Аудиокодек: AC3
Битрейт аудио: 192 Kbps, 2 канала

MediaInfo

Общее
Полное имя : Z:\Фильмы\Отечественные\Страсти по Владимиру (1990) SATRip.avi
Формат : AVI
Формат/Информация : Audio Video Interleave
Профиль формата : OpenDML
Размер файла : 2,10 Гбайт
Продолжительность : 1 ч. 55 м.
Общий поток : 2605 Кбит/сек
Программа кодирования : VirtualDubMod 1.5.10.3 | www.virtualdub-fr.org || (build 2550/release)
Библиотека кодирования : VirtualDubMod build 2550/release
Видео
Идентификатор : 0
Формат : MPEG-4 Visual
Профиль формата : Advanced Simple@L5
Параметр BVOP формата : 2
Параметр QPel формата : Нет
Параметр GMC формата : Без точки перехода
Параметр матрицы формата : Выборочная
Идентификатор кодека : XVID
Идентификатор кодека/Подсказка : XviD
Продолжительность : 1 ч. 55 м.
Битрейт : 2400 Кбит/сек
Ширина : 688 пикселей
Высота : 512 пикселей
Соотношение сторон : 4:3
Частота кадров : 25,000 кадров/сек
Цветовое пространство : YUV
Субдискретизация насыщенности : 4:2:0
Битовая глубина : 8 бит
Тип развёртки : Прогрессивная
Метод сжатия : С потерями
Бит/(Пиксели*Кадры) : 0.273
Размер потока : 1,93 Гбайт (92%)
Библиотека кодирования : XviD 64
Аудио
Идентификатор : 1
Формат : AC-3
Формат/Информация : Audio Coding 3
Расширение режима : CM (complete main)
Параметр Endianness формата : Big
Идентификатор кодека : 2000
Продолжительность : 1 ч. 55 м.
Вид битрейта : Постоянный
Битрейт : 192 Кбит/сек
Каналы : 2 канала
Расположение каналов : Front: L R
Частота : 48,0 КГц
Битовая глубина : 16 бит
Метод сжатия : С потерями
Размер потока : 158 Мбайт (7%)
Выравнивание : Разделение по промежуткам
Продолжительность промежутка : 40 мс. (1,00 видеокадр)
Время предзагрузки промежутка : 500 мс.
Скриншоты:
[Профиль] [ЛС]
Кто просматривает тему:

Форум Тема Автор Размер
Chanson (Шансон) VA - В Плену У Страсти. Лирика Русского Шансона - 2015, MP3, 256 kbps Magnat 703 MB
365 365: Вызов зодчим. Страсбургский собор / Le Défi des Bâtisseurs. La Cathédrale de Strasbourg / The builder's challenge - Strasbourg (Марк Ямпольски / Marc Ja... skorpionN 750 MB
Зарубежные сериалы Анатомия страсти (Анатомия Грей) / Grey's Anatomy [13x01-08 из 24] (2016) HDTV 720p | Jetvis Studio Zithylord 8.04 GB
Зарубежные сериалы Анатомия страсти / Grey's Anatomy [S01-11] (2005-2014) WEB-DLRip, HDTVRip | CTC, Fox Life Russian Mafia 109.28 GB
Зарубежные сериалы Анатомия страсти / Анатомия Грей / Grey's Anatomy [S01-10] (2005-2013) WEB-DLRip, HDTVRip | CTC, Fox Life Белочка 97.06 GB
Зарубежные сериалы Анатомия страсти / Анатомия Грей / Grey's Anatomy [S01] (2005) WEB-DLRip | СТС Белочка 3.83 GB
Зарубежные сериалы Анатомия страсти / Анатомия Грей / Grey's Anatomy [S02] (2005-2006) WEB-DLRip | СТС Белочка 11.39 GB
Зарубежные сериалы Анатомия страсти / Анатомия Грей / Grey's Anatomy [S03] (2006-2007) WEB-DLRip | СТС Белочка 10.78 GB
Показать сообщения:    

Текущее время: Сегодня 06:28

Часовой пояс: GMT



Вы не можете начинать темы
Вы не можете отвечать на сообщения
Вы не можете редактировать свои сообщения
Вы не можете удалять свои сообщения
Вы не можете голосовать в опросах
Вы не можете прикреплять файлы к сообщениям
Вы не можете скачивать файлы