Страсти-мордасти / Страстi-Мордастi (Владимир Гончаров, Валерий Коноплёв, Вадим Тюряев) [1991, Украина, мультфильм, чёрный юмор, WEBRip]

 
Автор Сообщение

TorrentFilm ®

Пол:

Стаж: 2 года

Сообщений: 7741



Награды: Нет

Торрент-статистика

Создавать темы 29-Фев-2016 00:09

[Цитировать]

Страсти-мордасти / Страстi-Мордастi
Страна: Украина
Жанр: мультфильм, чёрный юмор
Продолжительность: 00:09:17
Год выпуска: 1991
Перевод: не требуется
Русские субтитры: нет
Режиссёры: Владимир Гончаров, Валерий Коноплёв, Вадим Тюряев
Описание: Мультальманах в жанре чёрного юмора, показательного для 90-тых. Содержит три сюжета:
"Втеча" (Побег) - кусок сырого мяса сбегает от казни в мясорубке.
"Гiсть" (Гость) - в логово монстров приходит необычный гость.
"Колобок" - версия сказки, где Колобок сам пожирает всё вокруг.
Доп. информация: У рипа отсутствуют финальные титры
Качество: WEBRip
Формат: AVI
Видео: 1501 kbps, 608х464 (4:3), 25.000 fps, MPEG-4 Visual (XviD)
Аудио: 128 kbps, 44.1 kHz, 2 channels, MPEG Audio (MP3)
Субтитры: отсутствуют

Подробные технические данные

GeneralComplete name : Страсти-Мордасти (1991).aviFormat : AVIFormat/Info : Audio Video InterleaveFile size : 109 MiBDuration : 9mn 17sOverall bit rate : 1 638 KbpsWriting library : VirtualDub build 35491/release
VideoID : 0Format : MPEG-4 VisualFormat profile : Advanced Simple@L5Format settings, BVOP : 2Format settings, QPel : NoFormat settings, GMC : No warppointsFormat settings, Matrix : Default (H.263)Codec ID : XVIDCodec ID/Hint : XviDDuration : 9mn 17sBit rate : 1 501 KbpsWidth : 608 pixelsHeight : 464 pixelsDisplay aspect ratio : 4:3Frame rate : 25.000 fpsColor space : YUVChroma subsampling : 4:2:0Bit depth : 8 bitsScan type : ProgressiveCompression mode : LossyBits/(Pixel*Frame) : 0.213Stream size : 99.8 MiB (92%)Writing library : XviD 64
AudioID : 1Format : MPEG AudioFormat version : Version 1Format profile : Layer 3Mode : Joint stereoMode extension : MS StereoCodec ID : 55Codec ID/Hint : MP3Duration : 9mn 17sBit rate mode : ConstantBit rate : 128 KbpsChannel(s) : 2 channelsSampling rate : 44.1 KHzCompression mode : LossyStream size : 8.49 MiB (8%)Alignment : Split accross interleavesInterleave, duration : 40 ms (1.00 video frame)Interleave, preload duration : 501 ms

Скриншоты

[Профиль] [ЛС]
Кто просматривает тему:

Форум Тема Автор Размер
Chanson (Шансон) VA - В Плену У Страсти. Лирика Русского Шансона - 2015, MP3, 256 kbps Magnat 703 MB
365 365: Вызов зодчим. Страсбургский собор / Le Défi des Bâtisseurs. La Cathédrale de Strasbourg / The builder's challenge - Strasbourg (Марк Ямпольски / Marc Ja... skorpionN 750 MB
Зарубежные сериалы Анатомия страсти (Анатомия Грей) / Grey's Anatomy [13x01-08 из 24] (2016) HDTV 720p | Jetvis Studio Zithylord 8.04 GB
Зарубежные сериалы Анатомия страсти / Grey's Anatomy [S01-11] (2005-2014) WEB-DLRip, HDTVRip | CTC, Fox Life Russian Mafia 109.28 GB
Зарубежные сериалы Анатомия страсти / Анатомия Грей / Grey's Anatomy [S01-10] (2005-2013) WEB-DLRip, HDTVRip | CTC, Fox Life Белочка 97.06 GB
Зарубежные сериалы Анатомия страсти / Анатомия Грей / Grey's Anatomy [S01] (2005) WEB-DLRip | СТС Белочка 3.83 GB
Зарубежные сериалы Анатомия страсти / Анатомия Грей / Grey's Anatomy [S02] (2005-2006) WEB-DLRip | СТС Белочка 11.39 GB
Зарубежные сериалы Анатомия страсти / Анатомия Грей / Grey's Anatomy [S03] (2006-2007) WEB-DLRip | СТС Белочка 10.78 GB
Показать сообщения:    

Текущее время: Сегодня 00:09

Часовой пояс: GMT



Вы не можете начинать темы
Вы не можете отвечать на сообщения
Вы не можете редактировать свои сообщения
Вы не можете удалять свои сообщения
Вы не можете голосовать в опросах
Вы не можете прикреплять файлы к сообщениям
Вы не можете скачивать файлы