Странствующая блудница / Die Wanderhure (Хансйорг Турн / Hansjörg Thurn) [2010, Германия, Австрия, Венгрия, драма, мелодрама, DVDRip] MVO (РенТВ) + Original Ger

 
Автор Сообщение

TorrentFilm ®

Пол:

Стаж: 2 года

Сообщений: 7741



Награды: Нет

Торрент-статистика

Создавать темы 18-Янв-2015 00:00

[Цитировать]

Странствующая блудница / Die Wanderhure
Страна: Германия, Австрия, Венгрия
Жанр: драма, мелодрама
Год выпуска: 2010
Продолжительность: 02:00:30
Перевод: Профессиональный (многоголосый закадровый) РенТВ
Cубтитры: нет
Оригинальная аудиодорожка: немецкий
Режиссер: Хансйорг Турн / Hansjörg Thurn
В ролях: Александра Нелдель
Берт Тишендорф
Юлиан Вайгенд
Надя Бекер
Михаэль Бранднер
Мигель Херц-Кестранек
Елена Улиг
Туре Рифенштейн
Даниэль Рёснер
Гёц Отто
Описание: Средневековая южная Германия. Красавицу Мари, дочь богатого купца, собираются выдать против ее воли за незаконнорожденного сына графа фон Кайльбург. В результате интриг Мари жестоко насилуют, бросают в тюрьму, пытают и бичуют на площади. Ее, полумертвую, подбирают и выхаживают бродячие проститутки, и Мари движет теперь только одно желание — отомстить.
Сэмпл: http://multi-up.com/1027126
Качество видео: DVDRip
Формат видео: AVI
Видео: MPEG4, XviD, 720x400 (16/9), 25.000 fps, 1 929 Kbps (0.268 bit/pixel)
Аудио: AC-3, 48.0 KHz, 2 ch, 192 Kbps, CBR - русский
Аудио 2: AC-3, 48.0 KHz, 6 ch, 448 Kbps, CBR - немецкий

MediaInfo

Общее
Полное имя : K:\Странствующая блудница.avi
Формат : AVI
Формат/Информация : Audio Video Interleave
Профиль формата : OpenDML
Размер файла : 2,18 Гбайт
Продолжительность : 2 ч. 0 м.
Общий поток : 2588 Кбит/сек
Название фильма : Странствующая блудница / Die Wanderhure (2010)
Программа кодирования : VirtualDubMod 1.5.10.2 (build 2540/release)
Библиотека кодирования : VirtualDubMod build 2540/release
Правообладатель : miha2154
Видео
Идентификатор : 0
Формат : MPEG-4 Visual
Профиль формата : Advanced Simple@L5
Параметр BVOP формата : 1
Параметр QPel формата : Нет
Параметр GMC формата : Без точки перехода
Параметр матрицы формата : Выборочная
Идентификатор кодека : XVID
Идентификатор кодека/Подсказка : XviD
Продолжительность : 2 ч. 0 м.
Битрейт : 1929 Кбит/сек
Ширина : 720 пикселей
Высота : 400 пикселей
Соотношение сторон : 16:9
Частота кадров : 25,000 кадров/сек
Цветовое пространство : YUV
Субдискретизация насыщенности : 4:2:0
Битовая глубина : 8 бит
Тип развёртки : Прогрессивная
Метод сжатия : С потерями
Бит/(Пиксели*Кадры) : 0.268
Размер потока : 1,62 Гбайт (75%)
Библиотека кодирования : XviD 65
Аудио #1
Идентификатор : 1
Формат : AC-3
Формат/Информация : Audio Coding 3
Расширение режима : CM (complete main)
Параметр Endianness формата : Big
Идентификатор кодека : 2000
Продолжительность : 2 ч. 0 м.
Вид битрейта : Постоянный
Битрейт : 192 Кбит/сек
Каналы : 2 канала
Расположение каналов : Front: L R
Частота : 48,0 КГц
Битовая глубина : 16 бит
Метод сжатия : С потерями
Размер потока : 166 Мбайт (7%)
Выравнивание : Разделение по промежуткам
Продолжительность промежутка : 40 мс. (1,00 видеокадр)
Время предзагрузки промежутка : 500 мс.
Заголовок : Профессиональный (многоголосый закадровый) РенТВ
Аудио #2
Идентификатор : 2
Формат : AC-3
Формат/Информация : Audio Coding 3
Расширение режима : CM (complete main)
Параметр Endianness формата : Big
Идентификатор кодека : 2000
Продолжительность : 2 ч. 0 м.
Вид битрейта : Постоянный
Битрейт : 448 Кбит/сек
Каналы : 6 каналов
Расположение каналов : Front: L C R, Side: L R, LFE
Частота : 48,0 КГц
Битовая глубина : 16 бит
Метод сжатия : С потерями
Размер потока : 386 Мбайт (17%)
Выравнивание : Разделение по промежуткам
Продолжительность промежутка : 40 мс. (1,00 видеокадр)
Время предзагрузки промежутка : 500 мс.
Заголовок : Немецкий

Скриншоты

[Профиль] [ЛС]

Создавать темы 06-Авг-2015 22:48 (спустя 6 месяцев 19 дней)

Топик был перенесен из форума Фильмы до 2014 года в форум Фильмы до 2012 года
sergej644
 

Создавать темы 12-Июн-2016 07:54 (спустя 1 год 4 месяца)

Топик был перенесен из форума Фильмы 2011 года в форум Фильмы 2010 года
Russian Mafia
 
Кто просматривает тему:

Форум Тема Автор Размер
50/50 (Pop, Dance) VA - Лучшая дискотека страны 2 - 2015, MP3, 256 kbps Magnat 671 MB
50/50 (Pop, Dance) VA - Лучшая дискотека страны 3 - 2015, MP3, 256 kbps Magnat 671 MB
Pop (Pop,Dance) VA - Главная дискотека страны - 2015, MP3, 256 kbps Magnat 1.33 GB
Rock (Rock) Пикник - Чужестранец - 2014, FLAC (tracks), lossless sergej644 354 MB
BBC BBC: Высокое искусство стран Бенилюкса / The High Art of the Low Countries [серии 1-3 из 3] (Йен Лиз / Ian Leese, Colette Camden) [2012 г., Документальный, история искусств, HDTVRip 720p] skorpionN 5.23 GB
Da Vinci Learning Da Vinci Learning: Плазма: новая заря / Plasma. Ultimate Aurora (Энди Касагранд / Andy Casagrande, Томас Лукас / Thomas Lucas) [2013 г., Документальный, научно-популярный, физика и пространство,... skorpionN 716 MB
Компьютерная литература (Программирование) Mike Halsey / Майк Холси - Troubleshoot and Optimize Windows 8® Inside Out / Устранение неполадок и Оптимизация Windows 8 ® Изнутри [2012, PDF, ePub, ENG] TorrentFilm 60 MB
Nat Geo Wild Nat Geo Wild: Дикая Тасмания. Страна Дьявола / Wild Tasmania (William Larkin) [2000 г., Документальный, природа, флора, фауна, HDTVRip-AVC 720p] skorpionN 1.52 GB
Показать сообщения:    

Текущее время: Сегодня 11:54

Часовой пояс: GMT



Вы не можете начинать темы
Вы не можете отвечать на сообщения
Вы не можете редактировать свои сообщения
Вы не можете удалять свои сообщения
Вы не можете голосовать в опросах
Вы не можете прикреплять файлы к сообщениям
Вы не можете скачивать файлы