Страницы Российской истории. Рассказ первый. Земля Предков (Александр Гурьев) [1994, Россия, Исторический, TVRip]

 
Автор Сообщение

TorrentFilm ®

Пол:

Стаж: 2 года

Сообщений: 7741



Награды: Нет

Торрент-статистика

Создавать темы 07-Мар-2016 00:08

[Цитировать]

Страницы Российской истории. Рассказ первый. Земля Предков
Страна: Россия
Жанр: Исторический
Продолжительность: 00:24:21
Год выпуска: 1994
Русские субтитры: нет
Режиссёр: Александр Гурьев
Роли озвучивали: Леонид Ярмольник, Ольга Волкова, Михаил Кононов, Всеволод Абдулов, Рогволд Суховерко
Описание: В ночной тиши библиотеки мудрый Паук Василий, Буквоед и Нечто с хоботом листают страницы летописи «Повесть временных лет». В первом фильме «Земля предков» несостоявшегося цикла «Страницы Российской истории» Паук рассказывает об основании Киева, историю о призвании варяжского князя Рюрика на правление к славянам, о походе князя Олега на Византию, легенду о смерти Олега от коня, о правлении и бесславной гибели князя Игоря, о мести его жены княгини Ольги древлянам, о поездке Ольги в Царьград и принятии княгиней христианской веры.
Доп. информация: В сети есть несколько записей мультфильма: запись с "РТР", запись с "Российские Университеты". Данная же раздача отличается заметно лучшим качеством картинки и звука. Имеется еще одна запись с РТР, схожая по качеству с этой, но в наличии лишь 13 минут + все начальные титры.
Семпл: http://multi-up.com/1091910
Качество: TVRip
Формат: AVI
Видео: AVI 692x568, 25 fps, 4000 Kbps
Аудио: MP3, 44 kHz, Mono, 192 Kbps
Субтитры: отсутствуют

Подробные технические данные

GeneralFormat : AVIFormat/Info : Audio Video InterleaveFile size : 749 MiBDuration : 24mn 21sOverall bit rate : 4 296 KbpsWriting library : VirtualDub build 35491/release
VideoID : 0Format : MPEG-4 VisualFormat profile : Advanced Simple@L5Format settings, BVOP : 2Format settings, QPel : NoFormat settings, GMC : No warppointsFormat settings, Matrix : Default (H.263)Muxing mode : Packed bitstreamCodec ID : XVIDCodec ID/Hint : XviDDuration : 24mn 21sBit rate : 4 095 KbpsWidth : 692 pixelsHeight : 568 pixelsDisplay aspect ratio : 1.218Frame rate: 25.000 fpsColor space : YUVChroma subsampling : 4:2:0Bit depth : 8 bitsScan type : ProgressiveCompression mode : LossyBits/(Pixel*Frame) : 0.417Stream size : 713 MiB (95%)Writing library : XviD 73
AudioID : 1Format : MPEG AudioFormat version : Version 1Format profile : Layer 3Codec ID : 55Codec ID/Hint : MP3Duration : 24mn 21sBit rate mode : ConstantBit rate : 192 KbpsChannel(s) : 1 channelSampling rate : 44.1 KHzCompression mode : LossyStream size : 33.5 MiB (4%)Alignment : Split accross interleavesInterleave, duration : 40 ms (1.00 video frame)Interleave, preload duratio : 500 ms

Благодарности

Отдельная благодарность пользователю Ewako за запись данного мультфильма, а также совместную оцифровку.
[Профиль] [ЛС]
Кто просматривает тему:

Форум Тема Автор Размер
50/50 (Pop, Dance) VA - Лучшая дискотека страны 2 - 2015, MP3, 256 kbps Magnat 671 MB
50/50 (Pop, Dance) VA - Лучшая дискотека страны 3 - 2015, MP3, 256 kbps Magnat 671 MB
Pop (Pop,Dance) VA - Главная дискотека страны - 2015, MP3, 256 kbps Magnat 1.33 GB
Rock (Rock) Пикник - Чужестранец - 2014, FLAC (tracks), lossless sergej644 354 MB
BBC BBC: Высокое искусство стран Бенилюкса / The High Art of the Low Countries [серии 1-3 из 3] (Йен Лиз / Ian Leese, Colette Camden) [2012 г., Документальный, история искусств, HDTVRip 720p] skorpionN 5.23 GB
Da Vinci Learning Da Vinci Learning: Плазма: новая заря / Plasma. Ultimate Aurora (Энди Касагранд / Andy Casagrande, Томас Лукас / Thomas Lucas) [2013 г., Документальный, научно-популярный, физика и пространство,... skorpionN 716 MB
Компьютерная литература (Программирование) Mike Halsey / Майк Холси - Troubleshoot and Optimize Windows 8® Inside Out / Устранение неполадок и Оптимизация Windows 8 ® Изнутри [2012, PDF, ePub, ENG] TorrentFilm 60 MB
Nat Geo Wild Nat Geo Wild: Дикая Тасмания. Страна Дьявола / Wild Tasmania (William Larkin) [2000 г., Документальный, природа, флора, фауна, HDTVRip-AVC 720p] skorpionN 1.52 GB
Показать сообщения:    

Текущее время: Сегодня 10:09

Часовой пояс: GMT



Вы не можете начинать темы
Вы не можете отвечать на сообщения
Вы не можете редактировать свои сообщения
Вы не можете удалять свои сообщения
Вы не можете голосовать в опросах
Вы не можете прикреплять файлы к сообщениям
Вы не можете скачивать файлы