Страна чудес (2015) BDRip | Лицензия

 
Автор Сообщение

достали все ®

Пол:

Стаж: 1 год 8 месяцев

Сообщений: 6565



Награды: 12 (Подробнее)

За внесенный вклад в развитие сайта (Количество: 1) Top Releaser 4 (Количество: 1) Top Releaser 2 (Количество: 1)
Торрент-статистика

Создавать темы 02-Фев-2016 08:15

[Цитировать]

Информация о фильме
Название: Страна чудес
Год выхода: 2015
Жанр: Комедия
Режиссер: Дмитрий Дьяченко, Максим Свешников
В ролях: Елена Яковлева, Фёдор Добронравов, Александр Паль, Олеся Железняк, Сергей Лавыгин, Грант Тохатян, Ольга Лерман, Тимофей Трибунцев, Иван Добронравов, Анна Назарова
О фильме:
Герои фильма — жители самых разных уголков нашей страны, самые обычные люди, с которыми случаются самые необычные вещи, просто чудеса какие-то.
Семье пожарных Семёну и Любе из Костромы выпадает шанс осуществить заветную мечту: поехать в Москву на любимую программу «Поле Чудес», где им предстоит сделать выбор всей жизни «приз или деньги?». Неопытный ППСник, но опытный неудачник Саня должен не только пережить свой первый день в патруле, но ещё принять роды у своей жены и реанимировать своего напарника. Четвёрка новоиспечённых приятелей должна во что бы то ни стало в нелётную погоду улететь в Москву, а пара юных влюблённых каким-то непостижимым способом — примирить своих непримиримых родителей. А Валере вообще предстоит решить дилемму: спасать человечество от всемирного потопа или просто улететь с дружками по караоке — пришельцами, на их cтареньком НЛО?
Всё это может случиться только раз в году, 31 декабря! И только у нас! Всё-таки… Мы такие одни во вселенной.

Страна: Россия
Студия: All Media Company
Продолжительность: 01:23:11
Перевод: Не требуется
Файл
Качество: BDRip (исх. Страна чудес (2015) Blu-ray RUS 1080p AVC DTS 5.1)
Кодек: XviD
Видео: 720x304 (2,35:1), 24 fps, XviD ~1112 kbps avg, 0.212 bit/pixel
Звук: MP3, 48 kHz, 6 ch, ~128.00 kbps avg
Субтитры: Отсутствуют
Семпл

Скриншоты

Инфо-файл

Общее
Полное имя : D:Strana chudes.2015.O.BDRip.745.avi
Формат : AVI
Формат/Информация : Audio Video Interleave
Размер файла : 743 Мбайт
Продолжительность : 1 ч. 23 м.
Общий поток : 1250 Кбит/сек
Программа кодирования : VirtualDubMod 1.5.10.3 (build 2550/release)
Библиотека кодирования : VirtualDubMod build 2550/release
Видео
Идентификатор : 0
Формат : MPEG-4 Visual
Профиль формата : Advanced Simple@L5
Параметр BVOP формата : 2
Параметр QPel формата : Нет
Параметр GMC формата : Без точки перехода
Параметр матрицы формата : Default (MPEG)
Идентификатор кодека : XVID
Идентификатор кодека/Подсказка : XviD
Продолжительность : 1 ч. 23 м.
Битрейт : 1112 Кбит/сек
Ширина : 720 пикселей
Высота : 304 пикселя
Соотношение сторон : 2,35:1
Частота кадров : 24,000 кадра/сек
Цветовое пространство : YUV
Субдискретизация насыщенности : 4:2:0
Битовая глубина : 8 бит
Тип развёртки : Прогрессивная
Метод сжатия : С потерями
Бит/(Пиксели*Кадры) : 0.212
Размер потока : 662 Мбайт (89%)
Библиотека кодирования : XviD 73
Аудио
Идентификатор : 1
Формат : MPEG Audio
Версия формата : Version 1
Профиль формата : Layer 3
Режим : Joint stereo
Расширение режима : MS Stereo
Идентификатор кодека : 55
Идентификатор кодека/Подсказка : MP3
Продолжительность : 1 ч. 23 м.
Вид битрейта : Постоянный
Битрейт : 128 Кбит/сек
Каналы : 2 канала
Частота : 48,0 КГц
Метод сжатия : С потерями
Размер потока : 76,2 Мбайт (10%)
Выравнивание : Соединение по промежуткам
Продолжительность промежутка : 42 мс. (1,00 видеокадр)
Время предзагрузки промежутка : 504 мс.
Библиотека кодирования : LAME3.97
[Профиль] [ЛС]
Кто просматривает тему:

Форум Тема Автор Размер
50/50 (Pop, Dance) VA - Лучшая дискотека страны 2 - 2015, MP3, 256 kbps Magnat 671 MB
50/50 (Pop, Dance) VA - Лучшая дискотека страны 3 - 2015, MP3, 256 kbps Magnat 671 MB
Pop (Pop,Dance) VA - Главная дискотека страны - 2015, MP3, 256 kbps Magnat 1.33 GB
Rock (Rock) Пикник - Чужестранец - 2014, FLAC (tracks), lossless sergej644 354 MB
BBC BBC: Высокое искусство стран Бенилюкса / The High Art of the Low Countries [серии 1-3 из 3] (Йен Лиз / Ian Leese, Colette Camden) [2012 г., Документальный, история искусств, HDTVRip 720p] skorpionN 5.23 GB
Da Vinci Learning Da Vinci Learning: Плазма: новая заря / Plasma. Ultimate Aurora (Энди Касагранд / Andy Casagrande, Томас Лукас / Thomas Lucas) [2013 г., Документальный, научно-популярный, физика и пространство,... skorpionN 716 MB
Компьютерная литература (Программирование) Mike Halsey / Майк Холси - Troubleshoot and Optimize Windows 8® Inside Out / Устранение неполадок и Оптимизация Windows 8 ® Изнутри [2012, PDF, ePub, ENG] TorrentFilm 60 MB
Nat Geo Wild Nat Geo Wild: Дикая Тасмания. Страна Дьявола / Wild Tasmania (William Larkin) [2000 г., Документальный, природа, флора, фауна, HDTVRip-AVC 720p] skorpionN 1.52 GB
Показать сообщения:    

Текущее время: Сегодня 20:07

Часовой пояс: GMT



Вы не можете начинать темы
Вы не можете отвечать на сообщения
Вы не можете редактировать свои сообщения
Вы не можете удалять свои сообщения
Вы не можете голосовать в опросах
Вы не можете прикреплять файлы к сообщениям
Вы не можете скачивать файлы