Страна хороших деточек (Ольга Каптур) [2013, Россия, детский, приключения, семейный, HDTV (1080i]

 
Автор Сообщение

TorrentFilm ®

Пол:

Стаж: 2 года

Сообщений: 7741



Награды: Нет

Торрент-статистика

Создавать темы 06-Мар-2016 00:08

[Цитировать]

Страна хороших деточек- -Страна: Россия
Жанр: детский, приключения, семейный
Год выпуска: 2013
Производство: «Новые люди»
Продолжительность: 01:18:45
Оригинальная аудиодорожка: русский
Cубтитры: нет-Режиссер: Ольга Каптур-В ролях:
Кира Флейшер, Вячеслав Манучаров, Наталья Селезнёва, Владимир Грамматиков, Андрей Кайков,
Ирина Пегова, Дмитрий Назаров, Евгений Воскресенский, Ивонн Каттерфельд, Дарья Андреева-Описание:
Это история непослушной девочки Саши, родители которой неосмотрительно пожелали себе на Новый год, чтобы у них вместо Саши появилась хорошая девочка. Не успели пробить праздничные куранты, как на пороге появилась чужая хорошая девочка, а Саша сказочным образом перенеслась в волшебную Страну хороших деточек на перевоспитание. В этой стране правит строгая королева и ее еще более строгий полномочный представитель, а жизнь подчинена строгим правилам. Чтобы вернуться домой к родителям, Саше придется пройти через невероятные приключения и преодолеть множество испытаний, в чем ей помогут верные друзья — кот Багет и пес Балбес.-Возраст: 0+-Качество: HDTV (1080i)
Формат: TS
Видео кодек: AVC
Аудио кодек: AC3

Видео: AVC, 1920 х 1080 (16:9), 25,000 кадр/сек, 8 637 Кбит/сек, 0.167 bit/pixel
Аудио: AC3, 48000 Hz, 448 Kbps, 6 каналов
-

MediaInfo

General
ID : 1 (0x1)
Complete name : D:\Раздачи\Страна хороших деточек HDTV (1080i)\Страна хороших деточек HDTV (1080i).ts
Format : MPEG-TS
File size : 5.26 GiB
Duration : 1h 18mn
Overall bit rate mode : Variable
Overall bit rate : 9 562 Kbps
Video
ID : 3551 (0xDDF)
Menu ID : 1 (0x1)
Format : AVC
Format/Info : Advanced Video Codec
Format profile : Main@L4
Format settings, CABAC : Yes
Format settings, ReFrames : 3 frames
Codec ID : 27
Duration : 1h 18mn
Bit rate : 8 637 Kbps
Width : 1 920 pixels
Height : 1 080 pixels
Display aspect ratio : 16:9
Frame rate : 25.000 fps
Standard : Component
Color space : YUV
Chroma subsampling : 4:2:0
Bit depth : 8 bits
Scan type : Interlaced
Scan type, store method : Separated fields
Scan order : Top Field First
Bits/(Pixel*Frame) : 0.167
Stream size : 4.75 GiB (90%)
Color range : Limited
Color primaries : BT.709
Transfer characteristics : BT.709
Matrix coefficients : BT.709
Audio
ID : 3553 (0xDE1)
Menu ID : 1 (0x1)
Format : AC-3
Format/Info : Audio Coding 3
Mode extension : CM (complete main)
Format settings, Endianness : Big
Codec ID : 6
Duration : 1h 18mn
Bit rate mode : Constant
Bit rate : 448 Kbps
Channel(s) : 6 channels
Channel positions : Front: L C R, Side: L R, LFE
Sampling rate : 48.0 KHz
Frame rate : 31.250 fps (1536 spf)
Compression mode : Lossy
Stream size : 252 MiB (5%)
Language : Russian

Скриншоты


-Раздаю до первых 5-ти скачавших, на раздачи не возвращаюсь...-
[Профиль] [ЛС]
Кто просматривает тему:

Форум Тема Автор Размер
50/50 (Pop, Dance) VA - Лучшая дискотека страны 2 - 2015, MP3, 256 kbps Magnat 671 MB
50/50 (Pop, Dance) VA - Лучшая дискотека страны 3 - 2015, MP3, 256 kbps Magnat 671 MB
Pop (Pop,Dance) VA - Главная дискотека страны - 2015, MP3, 256 kbps Magnat 1.33 GB
Rock (Rock) Пикник - Чужестранец - 2014, FLAC (tracks), lossless sergej644 354 MB
BBC BBC: Высокое искусство стран Бенилюкса / The High Art of the Low Countries [серии 1-3 из 3] (Йен Лиз / Ian Leese, Colette Camden) [2012 г., Документальный, история искусств, HDTVRip 720p] skorpionN 5.23 GB
Da Vinci Learning Da Vinci Learning: Плазма: новая заря / Plasma. Ultimate Aurora (Энди Касагранд / Andy Casagrande, Томас Лукас / Thomas Lucas) [2013 г., Документальный, научно-популярный, физика и пространство,... skorpionN 716 MB
Компьютерная литература (Программирование) Mike Halsey / Майк Холси - Troubleshoot and Optimize Windows 8® Inside Out / Устранение неполадок и Оптимизация Windows 8 ® Изнутри [2012, PDF, ePub, ENG] TorrentFilm 60 MB
Nat Geo Wild Nat Geo Wild: Дикая Тасмания. Страна Дьявола / Wild Tasmania (William Larkin) [2000 г., Документальный, природа, флора, фауна, HDTVRip-AVC 720p] skorpionN 1.52 GB
Показать сообщения:    

Текущее время: Сегодня 22:22

Часовой пояс: GMT



Вы не можете начинать темы
Вы не можете отвечать на сообщения
Вы не можете редактировать свои сообщения
Вы не можете удалять свои сообщения
Вы не можете голосовать в опросах
Вы не можете прикреплять файлы к сообщениям
Вы не можете скачивать файлы