Страна глухих (1997) DVDRip от New-Team

 
Автор Сообщение

sergej644 ®

Пол:

Стаж: 4 года 11 месяцев

Сообщений: 6035

Откуда: Soviet Union



Награды: Нет

Торрент-статистика

Создавать темы 15-Авг-2014 15:49

[Цитировать]

-
Страна глухих
Год выпуска: 1997
Страна: Россия , Франция
Жанр: драма, комедия, криминал
Продолжительность: 01:54:18
Cубтитры: нет
Перевод: Не требуется
Режиссер: Валерий Тодоровский
Сценарий: Юрий Коротков, Валерий Тодоровский, Рената Литвинова
Продюсер: Сергей Ливнев, Илья Неретин
Оператор: Юрий Шайгарданов
Композитор : Алексей Айги
Художник: Сергей Иванов, Александр Осипов
Монтаж: Наталья Кучеренко, Ирина Третьякова
В ролях: Чулпан Хаматова (Рита), Дина Корзун (Яя), Максим Суханов (Свинья), Никита Тюнин (Алексей), Александр Яцко (кредитор), Павел Поймалов (Мао), Сергей Юшкевич (Нуна), Алексей Дьяков (Молодой)

Описание: Героиня фильма — Рита вынуждена скрываться; ее друг Алеша исчез, проиграв в рулетку чужие деньги. Ее спасает и прячет у себя глухая танцовщица ночного клуба Яя, живущая единственной мечтой — накопить денег и уехать в некую сказочную «страну глухих», где живут только глухие люди, и поэтому царит добро и справедливость. Неожиданно девушки оказываются в центре жестокого столкновения двух кланов мафии, глухих и слышащих…
СЭМПЛ
Зрители: Франция 1.6 тыс.

Премьера (мир): 6 апреля 1999
Премьера (РФ): 4 марта 1998, «Союз»

Качество: DVD9
Формат: AVI
Видео кодек: XviD
Аудио кодек: AC3
Видео: 720x400 (16:9), 25 fps, XviD ~ 1367 kbps avg, 0.190 bit/pixel
Аудио: Аудио #1: 48 kHz, Dolby Digital AC3 5.1, 448 kbps

МедиаИнфо

General
Complete name                    : Strana.gluhih.1997.DVDRip_[New-team]_by_AVP_Studio.avi
Format                           : AVI
Format/Info                      : Audio Video Interleave
File size                        : 1.46 GiB
Duration                         : 1h 54mn
Overall bit rate                 : 1 824 Kbps
Writing application              : VirtualDubModRus 1.5.10.2 (build 2542/release)
Writing library                  : VirtualDubMod build 2542/release
Video
ID                               : 0
Format                           : MPEG-4 Visual
Format profile                   : Advanced Simple@L5
Format settings, BVOP            : Yes
Format settings, QPel            : No
Format settings, GMC             : No warppoints
Format settings, Matrix          : Custom
Codec ID                         : XVID
Codec ID/Hint                    : XviD
Duration                         : 1h 54mn
Bit rate                         : 1 367 Kbps
Width                            : 720 pixels
Height                           : 400 pixels
Display aspect ratio             : 16:9
Frame rate                       : 25.000 fps
Color space                      : YUV
Chroma subsampling               : 4:2:0
Bit depth                        : 8 bits
Scan type                        : Progressive
Bits/(Pixel*Frame)               : 0.190
Stream size                      : 1.09 GiB (75%)
Writing library                  : XviD 73
Audio
ID                               : 1
Format                           : AC-3
Format/Info                      : Audio Coding 3
Mode extension                   : CM (complete main)
Codec ID                         : 2000
Duration                         : 1h 54mn
Bit rate mode                    : Constant
Bit rate                         : 448 Kbps
Channel(s)                       : 6 channels
Channel positions                : Front: L C R, Side: L R, LFE
Sampling rate                    : 48.0 KHz
Bit depth                        : 16 bits
Video delay                      : 80ms
Stream size                      : 366 MiB (25%)
Alignment                        : Split accross interleaves
Interleave, duration             : 40 ms (1.00 video frame)
Interleave, preload duration     : 500 ms
Время раздачи: с 09:00 до 23:30
[Профиль] [ЛС]

Создавать темы 06-Авг-2015 22:17 (спустя 11 месяцев 22 дня)

Топик был перенесен из форума Фильмы до 2014 года в форум Фильмы до 2012 года
sergej644
 
Кто просматривает тему:

Форум Тема Автор Размер
50/50 (Pop, Dance) VA - Лучшая дискотека страны 2 - 2015, MP3, 256 kbps Magnat 671 MB
50/50 (Pop, Dance) VA - Лучшая дискотека страны 3 - 2015, MP3, 256 kbps Magnat 671 MB
Pop (Pop,Dance) VA - Главная дискотека страны - 2015, MP3, 256 kbps Magnat 1.33 GB
Rock (Rock) Пикник - Чужестранец - 2014, FLAC (tracks), lossless sergej644 354 MB
BBC BBC: Высокое искусство стран Бенилюкса / The High Art of the Low Countries [серии 1-3 из 3] (Йен Лиз / Ian Leese, Colette Camden) [2012 г., Документальный, история искусств, HDTVRip 720p] skorpionN 5.23 GB
Da Vinci Learning Da Vinci Learning: Плазма: новая заря / Plasma. Ultimate Aurora (Энди Касагранд / Andy Casagrande, Томас Лукас / Thomas Lucas) [2013 г., Документальный, научно-популярный, физика и пространство,... skorpionN 716 MB
Компьютерная литература (Программирование) Mike Halsey / Майк Холси - Troubleshoot and Optimize Windows 8® Inside Out / Устранение неполадок и Оптимизация Windows 8 ® Изнутри [2012, PDF, ePub, ENG] TorrentFilm 60 MB
Nat Geo Wild Nat Geo Wild: Дикая Тасмания. Страна Дьявола / Wild Tasmania (William Larkin) [2000 г., Документальный, природа, флора, фауна, HDTVRip-AVC 720p] skorpionN 1.52 GB
Показать сообщения:    

Текущее время: Сегодня 11:54

Часовой пояс: GMT



Вы не можете начинать темы
Вы не можете отвечать на сообщения
Вы не можете редактировать свои сообщения
Вы не можете удалять свои сообщения
Вы не можете голосовать в опросах
Вы не можете прикреплять файлы к сообщениям
Вы не можете скачивать файлы