Стражи Рима / The Guardians of Rome [серии 1-2 из 2] (Роберт Кечичян / Robert Kechichian) [2005 г., Документальный, постановочный, история, SATRip]

 
Автор Сообщение

skorpionN ®

Пол:

Стаж: 1 год 8 месяцев

Сообщений: 587



Награды: 4 (Подробнее)

Mega Seeder 1 (Количество: 1) Top Releaser 2 (Количество: 1) Mega Seeder 3 (Количество: 1)
Торрент-статистика

Создавать темы 14-Май-2015 17:05

[Цитировать]

Стражи Рима / The Guardians of Rome [серии 1-2 из 2]
Год выпуска: 2005
Страна: Франция, Италия, Prime Group France 3, France 5, Rai Radiotelevisione Italiana
Жанр: Документальный, постановочный, история
Продолжительность: ~01:42:00
Перевод: Профессиональный (одноголосый) компания "Видеофильм ТВ"
Режиссер: Роберт Кечичян / Robert Kechichian
Описание: Фильм рассказывает о хранителях Рима - страже, охранявшей город от пожаров во времена правления императора Нерона, и о самом разрушительном и смертоносном пожаре. Доподлинно не известно, кто все-таки виноват в крушении города - то ли гладиаторы, то ли бывшие рабы, а может быть сам Нерон?
Список серий:
01. Стражи Рима / Guardians Of Rome
02. Рим горит / Rome burns
Качество: SATRip
Формат: AVI
Видео кодек: XviD
Аудио кодек: AC3
Видео: 720x400 25fps 1950kbps
Аудио: AC3 2ch, 48kHz, 192 kbps

Скриншоты


MediaInfo:

Format : AVI
Format/Info : Audio Video Interleave
File size : 789 MiB
Duration : 51mn 22s
Overall bit rate : 2 147 Kbps
Writing application : TMPGEnc Video Mastering Works 5 Version. 5.0.6.38
Writing library : TMPGEnc Video Mastering Works 5 Version. 5.0.6.38
Video
ID : 0
Format : MPEG-4 Visual
Format profile : Advanced Simple@L5
Format settings, BVOP : 2
Format settings, QPel : No
Format settings, GMC : No warppoints
Format settings, Matrix : Default (H.263)
Muxing mode : Packed bitstream
Codec ID : XVID
Codec ID/Hint : XviD
Duration : 51mn 22s
Bit rate : 1 948 Kbps
Width : 720 pixels
Height : 400 pixels
Display aspect ratio : 16:9
Frame rate : 25.000 fps
Color space : YUV
Chroma subsampling : 4:2:0
Bit depth : 8 bits
Scan type : Progressive
Compression mode : Lossy
Bits/(Pixel*Frame) : 0.271
Stream size : 716 MiB (91%)
Writing library : XviD 73
Audio
ID : 1
Format : AC-3
Format/Info : Audio Coding 3
Mode extension : CM (complete main)
Format settings, Endianness : Big
Codec ID : 2000
Duration : 51mn 22s
Bit rate mode : Constant
Bit rate : 192 Kbps
Channel(s) : 2 channels
Channel positions : Front: L R
Sampling rate : 48.0 KHz
Compression mode : Lossy
Stream size : 70.6 MiB (9%)
Alignment : Aligned on interleaves
Interleave, duration : 480 ms (12.00 video frames)
[Профиль] [ЛС]

KiruhaDelMar

Стаж: 1 год 8 месяцев

Сообщений: 246



Награды: Нет

Торрент-статистика

Создавать темы 16-Май-2015 19:57 (спустя 2 дня 2 часа)

[Цитировать]

Так есть же в инете, записывал, отлично помню
[Профиль] [ЛС]
Показать сообщения:    

Текущее время: Сегодня 12:32

Часовой пояс: GMT



Вы не можете начинать темы
Вы не можете отвечать на сообщения
Вы не можете редактировать свои сообщения
Вы не можете удалять свои сообщения
Вы не можете голосовать в опросах
Вы не можете прикреплять файлы к сообщениям
Вы не можете скачивать файлы