Стражи Галактики / Guardians of the Galaxy (2014) BDRip 720p от HQCLUB | IMAX Edition | Лицензия

 
Автор Сообщение

Russian Mafia ®

Пол:

Стаж: 1 год 8 месяцев

Сообщений: 4256



Награды: 10 (Подробнее)

Mega Seeder 3 (Количество: 1) За внесенный вклад в развитие сайта (Количество: 1) Top Releaser 5 (Количество: 1)
Торрент-статистика

Создавать темы 09-Май-2015 08:49

[Цитировать]

Информация о фильме
Название: Стражи Галактики
Оригинальное название: Guardians of the Galaxy
Год выхода: 2014
Жанр: фантастика, Боевик, Приключения
В ролях: Крис Пратт, Зои Салдана, Дэйв Батиста, Брэдли Купер, Вин Дизель, Ли Пейс, Майкл Рукер, Карен Гиллан, Гленн Клоуз, Джимон Хонсу
Режиссёр: Джеймс Ганн / James Gunn
О фильме: Отважному путешественнику Питеру Квиллу попадает в руки таинственный артефакт, принадлежащий могущественному и безжалостному злодею Ронану, строящему коварные планы по захвату Вселенной. Питер оказывается в центре межгалактической охоты, где жертва - он сам.
Единственный способ спасти свою жизнь - объединиться с четверкой нелюдимых изгоев: воинственным енотом по кличке Ракета, человекоподобным деревом Грутом, смертельно опасной Гаморой и одержимым жаждой мести Драксом, также известным как Разрушитель. Когда Квилл понимает, какой силой обладает украденный артефакт и какую опасность он представляет для вселенной, одиночка пойдет на все, чтобы сплотить случайных союзников для решающей битвы за судьбу галактики.«Мстители спасают лишь Землю бренную, а эти ребята спасают Вселенную»
Релиз от -
Автор рипа: Rensler
Выпущено: США / Marvel Enterprises, Marvel Studios, Moving Picture Company
Продолжительность: 02:00:51
Перевод:
• Профессиональный (полное дублирование) BD EUR
• Профессиональный (многоголосый, закадровый) «Омикрон»
• Авторский (одноголосый, закадровый) «Юрий Живов»
• Авторский (одноголосый, закадровый) «Юрий Сербин»
• Одноголосый, закадровый) «Алексей Матвеев»
• Авторский (одноголосый, закадровый) «Антон Карповский»
• Одноголосый, закадровый) «Дмитрий Есарев»
• Профессиональный (полное дублирование) «Украинский»
• Оригинальная аудиодорожка: Английская
Субтитры: Русские (форсированные, полные), Украинские (форсированные), Английские (полные х 2, SDH, SDH цветные)
Главы: Сохранены и подписаны чаптеры с оригинального Blu-ray Disc
Файл:
Формат: MKV
Качество: BDRip 720p (источник: / Blu-ray [Custom] [IMAX Edition] / 1080p)
Видео: 1280x720 (16:9) at 23.976, x264@L4.1, 2pass ~ 7915 kbps avg, 0.358 bit/pixel
Аудио#1: 48 kHz/16-bit, AC3 Dolby Digital, 3/2 (L,C,R,l,r) + LFE ch, ~ 640 kbps avg | RUS, Blu-ray EUR
Аудио#2: 48 kHz/16-bit, AC3 Dolby Digital, 3/2 (L,C,R,l,r) + LFE ch, ~ 640 kbps avg | RUS, OMICRON
Аудио#3: 48 kHz/16-bit, AC3 Dolby Digital, 3/2 (L,C,R,l,r) + LFE ch, ~ 640 kbps avg | RUS, Y.Zhivov
Аудио#4: 48 kHz/16-bit, AC3 Dolby Digital, 3/2 (L,C,R,l,r) + LFE ch, ~ 640 kbps avg | RUS, Y.Serbin
Аудио#5: 48 kHz/16-bit, AC3 Dolby Digital, 3/2 (L,C,R,l,r) + LFE ch, ~ 640 kbps avg | RUS, А.Matveev
Аудио#6: 48 kHz/16-bit, AC3 Dolby Digital, 3/2 (L,C,R,l,r) + LFE ch, ~ 640 kbps avg | RUS, А.Karpovsky
Аудио#7: 48 kHz/16-bit, AC3 Dolby Digital, 3/2 (L,C,R,l,r) + LFE ch, ~ 640 kbps avg | RUS, D.Esarev
Аудио#8: 48 kHz/16-bit, AC3 Dolby Digital, 3/2 (L,C,R,l,r) + LFE ch, ~ 640 kbps avg | UKR, Disney / Buena Vista
Аудио#9: 48 kHz/16-bit, AC3 Dolby Digital, 3/2 (L,C,R,l,r) + LFE ch, ~ 640 kbps avg | ENG
Скачать: Семпл
Размер: 11,55 GB

MediaInfo

Уникальный идентификатор : 229394695643420434451083376560803822228 (0xAC93CFB42173DD28AF9A4AFC3DBA3A94)
Полное имя : K:Rip' Release HQCLUBStrazhi.Galaktiki.2014.720p.IMAX.Blu-ray.HQCLUB.mkv
Формат : Matroska
Версия формата : Version 4 / Version 2
Размер файла : 11,5 Гбайт
Продолжительность : 2 ч. 1 м.
Общий поток : 13,6 Мбит/сек
Название фильма : Стражи Галактики / Guardians of the Galaxy (2014) Blu-ray 720p
Дата кодирования : UTC 2010-02-22 21:41:31
Программа кодирования : mkvmerge v5.8.0 ('No Sleep / Pillow') built on Sep 30 2012 10:57:14
Библиотека кодирования : libebml v1.3.0 + libmatroska v1.4.0
Attachements : 6j8iwfqy5cxiwopjs6zeyn863.png
Видео
Идентификатор : 1
Формат : AVC
Формат/Информация : Advanced Video Codec
Профиль формата : High@L4.1
Параметр CABAC формата : Да
Параметр ReFrames формата : 8 кадров
Идентификатор кодека : V_MPEG4/ISO/AVC
Продолжительность : 2 ч. 1 м.
Битрейт : 7915 Кбит/сек
Ширина : 1280 пикселей
Высота : 720 пикселей
Соотношение сторон : 16:9
Режим частоты кадров : Постоянный
Частота кадров : 23,976 кадра/сек
Цветовое пространство : YUV
Субдискретизация насыщенности : 4:2:0
Битовая глубина : 8 бит
Тип развёртки : Прогрессивная
Бит/(Пиксели*Кадры) : 0.358
Размер потока : 6,44 Гбайт (56%)
Заголовок : Release by HQCLUB
Библиотека кодирования : x264 core 146 r2538 121396c
Настройки программы : cabac=1 / ref=8 / deblock=1:-3:-3 / analyse=0x3:0x113 / me=tesa / subme=11 / psy=1 / psy_rd=1.02:0.02 / mixed_ref=1 / me_range=24 / chroma_me=1 / trellis=2 / 8x8dct=1 / cqm=0 / deadzone=21,11 / fast_pskip=0 / chroma_qp_offset=-3 / threads=3 / lookahead_threads=1 / sliced_threads=0 / nr=0 / decimate=0 / interlaced=0 / bluray_compat=0 / constrained_intra=0 / bframes=12 / b_pyramid=2 / b_adapt=2 / b_bias=0 / direct=3 / weightb=1 / open_gop=0 / weightp=2 / keyint=240 / keyint_min=23 / scenecut=40 / intra_refresh=0 / rc_lookahead=60 / rc=2pass / mbtree=0 / bitrate=7915 / ratetol=1.0 / qcomp=0.60 / qpmin=0 / qpmax=69 / qpstep=4 / cplxblur=20.0 / qblur=0.5 / vbv_maxrate=50000 / vbv_bufsize=62500 / nal_hrd=none / filler=0 / ip_ratio=1.40 / pb_ratio=1.30 / aq=2:1.00
Язык : English
Default : Да
Forced : Нет
Аудио #1
Идентификатор : 2
Формат : AC-3
Формат/Информация : Audio Coding 3
Расширение режима : CM (complete main)
Параметр Endianness формата : Big
Идентификатор кодека : A_AC3
Продолжительность : 2 ч. 1 м.
Вид битрейта : Постоянный
Битрейт : 640 Кбит/сек
Каналы : 6 каналов
Расположение каналов : Front: L C R, Side: L R, LFE
Частота : 48,0 КГц
Битовая глубина : 16 бит
Метод сжатия : С потерями
Размер потока : 555 Мбайт (5%)
Заголовок : BD EUR
Язык : Russian
Default : Да
Forced : Нет
Аудио #2
Идентификатор : 3
Формат : AC-3
Формат/Информация : Audio Coding 3
Расширение режима : CM (complete main)
Параметр Endianness формата : Big
Идентификатор кодека : A_AC3
Продолжительность : 2 ч. 1 м.
Вид битрейта : Постоянный
Битрейт : 640 Кбит/сек
Каналы : 6 каналов
Расположение каналов : Front: L C R, Side: L R, LFE
Частота : 48,0 КГц
Битовая глубина : 16 бит
Метод сжатия : С потерями
Размер потока : 555 Мбайт (5%)
Заголовок : MVO [Omicron]
Язык : Russian
Default : Нет
Forced : Нет
Аудио #3
Идентификатор : 4
Формат : AC-3
Формат/Информация : Audio Coding 3
Расширение режима : CM (complete main)
Параметр Endianness формата : Big
Идентификатор кодека : A_AC3
Продолжительность : 2 ч. 1 м.
Вид битрейта : Постоянный
Битрейт : 640 Кбит/сек
Каналы : 6 каналов
Расположение каналов : Front: L C R, Side: L R, LFE
Частота : 48,0 КГц
Битовая глубина : 16 бит
Метод сжатия : С потерями
Размер потока : 555 Мбайт (5%)
Заголовок : AVO [Zhivov]
Язык : Russian
Default : Нет
Forced : Нет
Аудио #4
Идентификатор : 5
Формат : AC-3
Формат/Информация : Audio Coding 3
Расширение режима : CM (complete main)
Параметр Endianness формата : Big
Идентификатор кодека : A_AC3
Продолжительность : 2 ч. 1 м.
Вид битрейта : Постоянный
Битрейт : 640 Кбит/сек
Каналы : 6 каналов
Расположение каналов : Front: L C R, Side: L R, LFE
Частота : 48,0 КГц
Битовая глубина : 16 бит
Метод сжатия : С потерями
Размер потока : 555 Мбайт (5%)
Заголовок : AVO [Serbin]
Язык : Russian
Default : Нет
Forced : Нет
Аудио #5
Идентификатор : 6
Формат : AC-3
Формат/Информация : Audio Coding 3
Расширение режима : CM (complete main)
Параметр Endianness формата : Big
Идентификатор кодека : A_AC3
Продолжительность : 2 ч. 1 м.
Вид битрейта : Постоянный
Битрейт : 640 Кбит/сек
Каналы : 6 каналов
Расположение каналов : Front: L C R, Side: L R, LFE
Частота : 48,0 КГц
Битовая глубина : 16 бит
Метод сжатия : С потерями
Размер потока : 555 Мбайт (5%)
Заголовок : AVO [Matveev]
Язык : Russian
Default : Нет
Forced : Нет
Аудио #6
Идентификатор : 7
Формат : AC-3
Формат/Информация : Audio Coding 3
Расширение режима : CM (complete main)
Параметр Endianness формата : Big
Идентификатор кодека : A_AC3
Продолжительность : 2 ч. 1 м.
Вид битрейта : Постоянный
Битрейт : 640 Кбит/сек
Каналы : 6 каналов
Расположение каналов : Front: L C R, Side: L R, LFE
Частота : 48,0 КГц
Битовая глубина : 16 бит
Метод сжатия : С потерями
Размер потока : 555 Мбайт (5%)
Заголовок : AVO [Karpovsky]
Язык : Russian
Default : Нет
Forced : Нет
Аудио #7
Идентификатор : 8
Формат : AC-3
Формат/Информация : Audio Coding 3
Расширение режима : CM (complete main)
Параметр Endianness формата : Big
Идентификатор кодека : A_AC3
Продолжительность : 2 ч. 1 м.
Вид битрейта : Постоянный
Битрейт : 640 Кбит/сек
Каналы : 6 каналов
Расположение каналов : Front: L C R, Side: L R, LFE
Частота : 48,0 КГц
Битовая глубина : 16 бит
Метод сжатия : С потерями
Размер потока : 555 Мбайт (5%)
Заголовок : AVO [Esarev]
Язык : Russian
Default : Нет
Forced : Нет
Аудио #8
Идентификатор : 9
Формат : AC-3
Формат/Информация : Audio Coding 3
Расширение режима : CM (complete main)
Параметр Endianness формата : Big
Идентификатор кодека : A_AC3
Продолжительность : 2 ч. 1 м.
Вид битрейта : Постоянный
Битрейт : 640 Кбит/сек
Каналы : 6 каналов
Расположение каналов : Front: L C R, Side: L R, LFE
Частота : 48,0 КГц
Битовая глубина : 16 бит
Метод сжатия : С потерями
Размер потока : 555 Мбайт (5%)
Заголовок : Ukrainian
Язык : Ukrainian
Default : Нет
Forced : Нет
Аудио #9
Идентификатор : 10
Формат : AC-3
Формат/Информация : Audio Coding 3
Расширение режима : CM (complete main)
Параметр Endianness формата : Big
Идентификатор кодека : A_AC3
Продолжительность : 2 ч. 1 м.
Вид битрейта : Постоянный
Битрейт : 640 Кбит/сек
Каналы : 6 каналов
Расположение каналов : Front: L C R, Side: L R, LFE
Частота : 48,0 КГц
Битовая глубина : 16 бит
Метод сжатия : С потерями
Размер потока : 555 Мбайт (5%)
Заголовок : Original
Язык : English
Default : Нет
Forced : Нет
Текст #1
Идентификатор : 11
Формат : UTF-8
Идентификатор кодека : S_TEXT/UTF8
Идентификатор кодека/Информация : UTF-8 Plain Text
Заголовок : Forced
Язык : Russian
Default : Да
Forced : Нет
Текст #2
Идентификатор : 12
Формат : UTF-8
Идентификатор кодека : S_TEXT/UTF8
Идентификатор кодека/Информация : UTF-8 Plain Text
Заголовок : Full
Язык : Russian
Default : Нет
Forced : Нет
Текст #3
Идентификатор : 13
Формат : UTF-8
Идентификатор кодека : S_TEXT/UTF8
Идентификатор кодека/Информация : UTF-8 Plain Text
Заголовок : Forced
Язык : Ukrainian
Default : Нет
Forced : Нет
Текст #4
Идентификатор : 14
Формат : UTF-8
Идентификатор кодека : S_TEXT/UTF8
Идентификатор кодека/Информация : UTF-8 Plain Text
Заголовок : Full 1
Язык : English
Default : Нет
Forced : Нет
Текст #5
Идентификатор : 15
Формат : UTF-8
Идентификатор кодека : S_TEXT/UTF8
Идентификатор кодека/Информация : UTF-8 Plain Text
Заголовок : Full 2
Язык : English
Default : Нет
Forced : Нет
Текст #6
Идентификатор : 16
Формат : UTF-8
Идентификатор кодека : S_TEXT/UTF8
Идентификатор кодека/Информация : UTF-8 Plain Text
Заголовок : SDH
Язык : English
Default : Нет
Forced : Нет
Текст #7
Идентификатор : 17
Формат : UTF-8
Идентификатор кодека : S_TEXT/UTF8
Идентификатор кодека/Информация : UTF-8 Plain Text
Заголовок : SDH colored
Язык : English
Default : Нет
Forced : Нет
Меню
00:00:00.000 : ru: Пролог
00:04:05.703 : ru: Мораг
00:11:21.806 : ru: Ронан обвинитель
00:15:21.712 : ru: Человек чести
00:20:54.419 : ru: В Килн
00:27:11.212 : ru: Преступления против Галактики
00:33:58.828 : ru: Выбираясь Из Килна
00:44:28.290 : ru: Знаю здесь
00:50:53.008 : ru: Я не танцую
00:55:17.564 : ru: Коллектор
00:59:45.206 : ru: Столкнувшись с Ронаном
01:06:06.921 : ru: Что-то невероятно героическое
01:14:46.023 : ru: 12 процентов плана
01:22:20.644 : ru: Флот
01:26:29.726 : ru: Внутри Астера
01:30:23.876 : ru: Уничтожая Ксандер
01:35:58.377 : ru: Защита опекунов
01:40:46.749 : ru: Стражи Галактики
01:47:35.365 : ru: Стражи помилованных
01:53:16.623 : ru: Корпус Нова
02:00:10.828 : ru: Конец

log@x.264

x264 [info]: frame I:1685 Avg QP: 10.97 size:158323
x264 [info]: frame P:38984 Avg QP:13.71 size: 76469
x264 [info]: frame B:133186 Avg QP:16.32 size: 29443
x264 [info]: consecutive B-frames: 3.5% 2.7% 8.0% 19.5% 18.2% 35.1% 5.4% 2.1% 1.2% 1.0% 2.2% 0.7% 0.7%
x264 [info]: ref P L0: 49.9% 8.8% 16.5% 8.5% 6.1% 4.5% 3.4% 2.0% 0.3% 0.0%

Source vs Encode

Source vs Encode




В целях воспроизведения фильма в оригинальном формате IMAX, соотношение сторон кадра будет варьироваться между 2.35:1 и 1.80:1.
[Профиль] [ЛС]
Показать сообщения:    

Текущее время: Сегодня 02:21

Часовой пояс: GMT



Вы не можете начинать темы
Вы не можете отвечать на сообщения
Вы не можете редактировать свои сообщения
Вы не можете удалять свои сообщения
Вы не можете голосовать в опросах
Вы не можете прикреплять файлы к сообщениям
Вы не можете скачивать файлы