Стражи Галактики / Guardians of the Galaxy (2014) HDRip [AVO]

 
Автор Сообщение

KottoSoft ®

Стаж: 2 года

Сообщений: 119



Награды: Нет

Торрент-статистика

Создавать темы 05-Янв-2015 20:49

[Цитировать]

-Стражи Галактики / Guardians of the Galaxy (2014) HDRip-Год выпуска: 2014
Производство: USA, Marvel Studios Inc.
Жанр: Фантастика, Боевик, Приключения-Режиссер: Джеймс Ганн / James Gunn
Актеры: Крис Пратт, Зои Салдана, Дэйв Батиста, Брэдли Купер, Вин Дизель, Ли Пейс, Майкл Рукер, Карен Гиллан, Гленн Клоуз, Джимон Хонсу
Описание фильма:
Отважному путешественнику Питеру Квиллу попадает в руки таинственный артефакт, принадлежащий могущественному и безжалостному злодею Ронану, строящему коварные планы по захвату Вселенной. Питер оказывается в центре межгалактической охоты, где жертва — он сам.
Единственный способ спасти свою жизнь — объединиться с четверкой нелюдимых изгоев: воинственным енотом по кличке Ракета, человекоподобным деревом Грутом, смертельно опасной Гаморой и одержимым жаждой мести Драксом, также известным как Разрушитель. Когда Квилл понимает, какой силой обладает украденный артефакт и какую опасность он представляет для вселенной, одиночка пойдет на все, чтобы сплотить случайных союзников для решающей битвы за судьбу галактики.-Перевод: Авторский (одноголосый, закадровый) Ю.Сербин
Субтитры: Отсутствуют-
Дата мировой премьеры: 21 июля 2014
Дата российской премьеры: 31 июля 2014
Дата выхода DVD релиза: 2 декабря 2014-Продолжительность: 02:00:51
Качество видео: HDRip
Видео: MPEG4, XviD, 640x272 (2.35:1), 23.976 fps, 728 Kbps (0.174 bit/pixel)
Аудио: MP3, 48.0 KHz, 2 ch, 128 Kbps, CBR
Сэмпл: Скачать

MediaInfo

Формат : AVI
Формат/Информация : Audio Video Interleave
Размер файла : 748 Мбайт
Продолжительность : 2 ч. 0 м.
Общий поток : 865 Кбит/сек
Программа кодирования : VirtualDubModRus 1.5.10.2 (build 2542/release)
Библиотека кодирования : VirtualDubMod build 2542/release
Видео
Идентификатор : 0
Формат : MPEG-4 Visual
Профиль формата : Advanced Simple@L5
Параметр BVOP формата : 1
Параметр QPel формата : Нет
Параметр GMC формата : Без точки перехода
Параметр матрицы формата : Выборочная
Идентификатор кодека : XVID
Идентификатор кодека/Подсказка : XviD
Продолжительность : 2 ч. 0 м.
Битрейт : 728 Кбит/сек
Ширина : 640 пикселей
Высота : 272 пикселя
Соотношение сторон : 2,35:1
Частота кадров : 23,976 кадра/сек
Цветовое пространство : YUV
Субдискретизация насыщенности : 4:2:0
Битовая глубина : 8 бит
Тип развёртки : Прогрессивная
Метод сжатия : С потерями
Бит/(Пиксели*Кадры) : 0.174
Размер потока : 629 Мбайт (84%)
Библиотека кодирования : XviD 73
Аудио
Идентификатор : 1
Формат : MPEG Audio
Версия формата : Version 1
Профиль формата : Layer 3
Идентификатор кодека : 55
Идентификатор кодека/Подсказка : MP3
Продолжительность : 2 ч. 0 м.
Вид битрейта : Постоянный
Битрейт : 128 Кбит/сек
Каналы : 2 канала
Частота : 48,0 КГц
Метод сжатия : С потерями
Размер потока : 111 Мбайт (15%)
Выравнивание : Соединение по промежуткам
Продолжительность промежутка : 42 мс. (1,00 видеокадр)
Время предзагрузки промежутка : 504 мс.
Библиотека кодирования : LAME3.99r
Настройки программы : -m s -V 4 -q 2 -lowpass 17 -b 128
Скриншоты:
[Профиль] [ЛС]
Показать сообщения:    

Текущее время: Сегодня 08:28

Часовой пояс: GMT



Вы не можете начинать темы
Вы не можете отвечать на сообщения
Вы не можете редактировать свои сообщения
Вы не можете удалять свои сообщения
Вы не можете голосовать в опросах
Вы не можете прикреплять файлы к сообщениям
Вы не можете скачивать файлы