Стражи Галактики / Guardians of the Galaxy (2014) BDRip 720p от HQ-ViDEO | Лицензия

 
Автор Сообщение

sergej644 ®

Пол:

Стаж: 4 года 11 месяцев

Сообщений: 6042

Откуда: Soviet Union



Награды: Нет

Торрент-статистика

Создавать темы 04-Янв-2015 00:30

[Цитировать]

--Стражи Галактики / Guardians of the Galaxy (2014) BDRip 720p
Информация о фильме
Название: Стражи Галактики
Оригинальное название: Guardians of the Galaxy
Год выхода: 2014
Жанр: Фантастика, Боевик, Приключения
Режиссер: Джеймс Ганн /James Gunn/
В ролях: Крис Прэтт /Chris Pratt/, Дэйв Батиста /Dave Bautista/, Зои Салдана /Zoe Saldana/, Брэдли Купер /Bradley Cooper/, Вин Дизель/Vin Diesel/, Ли Пейс /Lee Pace/, Карен Гиллан /Karen Gillan/, Майкл Рукер /Michael Rooker/, Гленн Клоуз /Glenn Close/, Джимон Хонсу /Djimon Hounsou/, Бенисио Дель Торо /Benicio Del Toro/
О фильме:
Отважному путешественнику Питеру Квиллу попадает в руки таинственный артефакт, принадлежащий могущественному и безжалостному злодею Ронану, строящему коварные планы по захвату Вселенной. Питер оказывается в центре межгалактической охоты, где жертва — он сам. Единственный способ спасти свою жизнь — объединиться с четверкой нелюдимых изгоев: воинственным енотом по кличке Ракета, человекоподобным деревом Грутом, смертельно опасной Гаморой и одержимым жаждой мести Драксом, также известным как Разрушитель. Когда Квилл понимает, какой силой обладает украденный артефакт и какую опасность он представляет для вселенной, одиночка пойдет на все, чтобы сплотить случайных союзников для решающей битвы за судьбу галактики.

Страна: США, Великобритания
Продолжительность: 02:00:51
Перевод: Русский дублированный перевод (Blu-ray EUR) + Украинский дублированный перевод (Disney / Buena Vista) + Оригинальная английская дорожка
Файл
Кодек: MPEG-4 AVC; x264 codec
Качество: BDRip 720p (Source: Blu-ray Disc AVC DTS-HD MA 7.1)
Формат: MKV
Видео: 1280 x 534; 23.976 fps; 6174 kbps; 0.377 bit/pixel
Аудио #1: Russian AC3 Dolby Digital; 640 Kbps; 6 channels; 48 KHz
Аудио #2: Ukrainian AC3 Dolby Digital; 640 Kbps; 6 channels; 48 KHz
Аудио #3: English AC3 Dolby Digital; 640 Kbps; 6 channels; 48 KHz
Субтитры: Русские (полные (iTunes), форсированные), Английские (полные, SDH).

MediaInfo

General
Unique ID                                : 242292817164383691433220393807071864954 (0xB647E6313AC1A3C9BCAE4D9CBE3AE87A)
Complete name                            : D:DownloadStrazhi.Galaktiki.2014.TRIPLE.BDRip.720p.AC3.-HQ-ViDEO.mkv
Format                                   : Matroska
Format version                           : Version 4 / Version 2
File size                                : 6.99 GiB
Duration                                 : 2h 1mn
Overall bit rate                         : 8 258 Kbps
Movie name                               : Guardians of the Galaxy (2014) / Release by HQ-ViDEO
Encoded date                             : UTC 2014-12-10 21:37:33
Writing application                      : mkvmerge v7.3.0 ('Nouages') 32bit built on Oct 22 2014 18:44:01
Writing library                          : libebml v1.3.0 + libmatroska v1.4.1
Attachment                               : Yes
Video
ID                                       : 1
Format                                   : AVC
Format/Info                              : Advanced Video Codec
Format profile                           : High@L4.1
Format settings, CABAC                   : Yes
Format settings, ReFrames                : 12 frames
Codec ID                                 : V_MPEG4/ISO/AVC
Duration                                 : 2h 1mn
Bit rate                                 : 6 174 Kbps
Width                                    : 1 280 pixels
Height                                   : 534 pixels
Display aspect ratio                     : 2.40:1
Frame rate                               : 23.976 fps
Color space                              : YUV
Chroma subsampling                       : 4:2:0
Bit depth                                : 8 bits
Scan type                                : Progressive
Bits/(Pixel*Frame)                       : 0.377
Stream size                              : 5.22 GiB (75%)
Title                                    : VietHD @ 6217 Kbps
Writing library                          : x264 core 142 r2491kMod 24e4fed
Encoding settings                        : cabac=1 / ref=12 / deblock=1:-3:-3 / analyse=0x3:0x133 / me=umh / subme=10 / psy=1 / fade_compensate=0.00 / psy_rd=1.05:0.00 / mixed_ref=1 / me_range=24 / chroma_me=1 / trellis=2 / 8x8dct=1 / cqm=0 / deadzone=21,11 / fast_pskip=0 / chroma_qp_offset=-2 / threads=6 / lookahead_threads=1 / sliced_threads=0 / nr=0 / decimate=0 / interlaced=0 / bluray_compat=0 / constrained_intra=0 / fgo=0 / bframes=11 / b_pyramid=2 / b_adapt=2 / b_bias=0 / direct=3 / weightb=1 / open_gop=0 / weightp=2 / keyint=250 / keyint_min=23 / scenecut=40 / intra_refresh=0 / rc=crf / mbtree=0 / crf=13.5000 / qcomp=0.65 / qpmin=0 / qpmax=69 / qpstep=4 / ip_ratio=1.30 / pb_ratio=1.20 / aq=2:0.65
Language                                 : English
Default                                  : Yes
Forced                                   : No
Audio #1
ID                                       : 2
Format                                   : AC-3
Format/Info                              : Audio Coding 3
Mode extension                           : CM (complete main)
Codec ID                                 : A_AC3
Duration                                 : 2h 1mn
Bit rate mode                            : Constant
Bit rate                                 : 640 Kbps
Channel(s)                               : 6 channels
Channel positions                        : Front: L C R, Side: L R, LFE
Sampling rate                            : 48.0 KHz
Bit depth                                : 16 bits
Compression mode                         : Lossy
Stream size                              : 555 MiB (8%)
Title                                    : Dub, Blu-ray EUR
Language                                 : Russian
Default                                  : Yes
Forced                                   : No
Audio #2
ID                                       : 3
Format                                   : AC-3
Format/Info                              : Audio Coding 3
Mode extension                           : CM (complete main)
Codec ID                                 : A_AC3
Duration                                 : 2h 1mn
Bit rate mode                            : Constant
Bit rate                                 : 640 Kbps
Channel(s)                               : 6 channels
Channel positions                        : Front: L C R, Side: L R, LFE
Sampling rate                            : 48.0 KHz
Bit depth                                : 16 bits
Compression mode                         : Lossy
Stream size                              : 555 MiB (8%)
Title                                    : Dub, Disney / Buena Vista
Language                                 : Ukrainian
Default                                  : No
Forced                                   : No
Audio #3
ID                                       : 4
Format                                   : AC-3
Format/Info                              : Audio Coding 3
Mode extension                           : CM (complete main)
Codec ID                                 : A_AC3
Duration                                 : 2h 1mn
Bit rate mode                            : Constant
Bit rate                                 : 640 Kbps
Channel(s)                               : 6 channels
Channel positions                        : Front: L C R, Side: L R, LFE
Sampling rate                            : 48.0 KHz
Bit depth                                : 16 bits
Compression mode                         : Lossy
Stream size                              : 555 MiB (8%)
Language                                 : English
Default                                  : No
Forced                                   : No
Text #1
ID                                       : 5
Format                                   : UTF-8
Codec ID                                 : S_TEXT/UTF8
Codec ID/Info                            : UTF-8 Plain Text
Title                                    : Forced
Language                                 : Russian
Default                                  : Yes
Forced                                   : No
Text #2
ID                                       : 6
Format                                   : UTF-8
Codec ID                                 : S_TEXT/UTF8
Codec ID/Info                            : UTF-8 Plain Text
Title                                    : iTunes
Language                                 : Russian
Default                                  : No
Forced                                   : No
Text #3
ID                                       : 7
Format                                   : UTF-8
Codec ID                                 : S_TEXT/UTF8
Codec ID/Info                            : UTF-8 Plain Text
Language                                 : English
Default                                  : No
Forced                                   : No
Text #4
ID                                       : 8
Format                                   : UTF-8
Codec ID                                 : S_TEXT/UTF8
Codec ID/Info                            : UTF-8 Plain Text
Title                                    : SDH
Language                                 : English
Default                                  : No
Forced                                   : No
Menu
00:00:00.000                             : en:Prologue
00:04:05.703                             : en:Morag
00:11:21.806                             : en:Ronan The Accuser
00:15:21.712                             : en:A Man Of Honor
00:20:54.419                             : en:The Kyln
00:27:11.212                             : en:Crimes Against The Galaxy
00:33:58.828                             : en:Escaping The Kyln
00:44:28.290                             : en:Knowhere
00:50:53.008                             : en:I Do Not Dance
00:55:17.564                             : en:The Collector
00:59:45.206                             : en:Facing Off With Ronan
01:06:06.921                             : en:Something Incredibly Heroic
01:14:46.023                             : en:12 Percent Of A Plan
01:22:20.644                             : en:The Fleet Approaches
01:26:29.726                             : en:Inside The Dark Aster
01:30:23.876                             : en:Destroying Xandar
01:35:58.377                             : en:Protecting The Guardians
01:40:46.749                             : en:Guardians Of The Galaxy
01:47:35.365                             : en:Guardians Pardoned
01:53:16.623                             : en:End Credits
02:00:10.828                             : en:End Tag
Скриншоты для оценки качества (превью - увеличение по клику): Автор релиза: Mister Yarik
ПРИЯТНОГО ПРОСМОТРА!
[Профиль] [ЛС]
Показать сообщения:    

Текущее время: Сегодня 14:27

Часовой пояс: GMT



Вы не можете начинать темы
Вы не можете отвечать на сообщения
Вы не можете редактировать свои сообщения
Вы не можете удалять свои сообщения
Вы не можете голосовать в опросах
Вы не можете прикреплять файлы к сообщениям
Вы не можете скачивать файлы