Стражи Галактики. Часть 2 / Guardians of the Galaxy Vol. 2 (2017) BDRip-HEVC 1080p | iTunes

 
Автор Сообщение

BOSS ®

Пол:

Стаж: 3 года

Сообщений: 7616

Откуда: ODESSA



Награды: 22 (Подробнее)

Top Keeper 1 (Количество: 1) Mega Seeder 1 (Количество: 1) Top Seeder 4 (Количество: 1)
Торрент-статистика

Создавать темы 13-Авг-2017 13:20

[Цитировать]

Информация о фильме
Название Стражи Галактики. Часть 2
Оригинальное название: Guardians of the Galaxy Vol. 2
Год выхода: 2017
Жанр: фантастика, боевик, приключения
Режиссер: Джеймс Ганн
В ролях: Крис Пратт, Зои Салдана, Дэйв Батиста, Вин Дизель, Брэдли Купер, Майкл Рукер, Карен Гиллан, Пом Клементьефф, Элизабет Дебики, Курт Рассел
О фильме:
Все в сборе: землянин Питер Квилл (Звездный Лорд), молчаливый громила Дракс, зеленокожая наемница Гамора, живое дерево Грут и говорящий енот. Герои не изменяют себе и с завидной регулярностью продолжают попадать в немыслимые ситуации, выпутываясь из них почти без ущерба (а иногда даже с пользой) для окружающих. На этот раз им предстоит раскрыть одну из самых главных тайн во всей Галактике: кто же на самом деле отец Питера Квилла?

Страна: США
Продолжительность: 02:15:46
Перевод: Дублированный
Файл
Кодек: HEVC 10bit
Качество: BDRip 1080p
Видео: 1920x804 at 23.976 fps, x265@Main 10@L4@Main, crf, ~3706 kbps avg
Звук:
1: Russian: 48.0 KHz, AC-3, 3/2 (L,C,R,l,r) + LFE ch, ~384 Kbps avg | Dub
2: English: 48.0 KHz, AAC, 3/2 (L,C,R,l,r) + LFE ch, ~401 Kbps avg | Original
Субтитры: Russian (Forced), Russian (Full), English (Full)

Скриншоты

MediaInfo

General
Unique ID : 194233960656288900204042481550754339477 (0x922019A0729DBAD1B5652B9C7C685A95)
Complete name : Стражи Галактики 2.2017.HEVC.mkv
Format : Matroska
Format version : Version 4 / Version 2
File size : 4.26 GiB
Duration : 2h 15mn
Overall bit rate : 4 494 Kbps
Movie name : Guardians of the Galaxy Vol. 2
Encoded date : UTC 2017-08-13 12:35:00
Writing application : mkvmerge v9.5.0 ('Quiet Fire') 64bit
Writing library : libebml v1.3.4 + libmatroska v1.4.5
Video
ID : 1
Format : HEVC
Format/Info : High Efficiency Video Coding
Format profile : Main 10@L4@Main
Codec ID : V_MPEGH/ISO/HEVC
Duration : 2h 15mn
Bit rate : 3 707 Kbps
Width : 1 920 pixels
Height : 804 pixels
Display aspect ratio : 2.40:1
Frame rate mode : Constant
Frame rate : 23.976 (24000/1001) fps
Color space : YUV
Chroma subsampling : 4:2:0
Bit depth : 10 bits
Bits/(Pixel*Frame) : 0.100
Stream size : 3.52 GiB (82%)
Title : HEVC
Writing library : x265 2.3+27-7e137e3ae083:[Windows][GCC 5.3.1][64 bit] 10bit
Encoding settings : cpuid=1173503 / frame-threads=2 / numa-pools=4 / wpp / no-pmode / no-pme / no-psnr / no-ssim / log-level=2 / input-csp=1 / input-res=1920x804 / interlace=0 / total-frames=0 / level-idc=0 / high-tier=1 / uhd-bd=0 / ref=4 / no-allow-non-conformance / no-repeat-headers / annexb / no-aud / no-hrd / info / hash=0 / no-temporal-layers / open-gop / min-keyint=23 / keyint=250 / bframes=10 / b-adapt=2 / b-pyramid / bframe-bias=0 / rc-lookahead=60 / lookahead-slices=0 / scenecut=40 / no-intra-refresh / ctu=64 / min-cu-size=8 / no-rect / no-amp / max-tu-size=32 / tu-inter-depth=4 / tu-intra-depth=4 / limit-tu=4 / rdoq-level=2 / dynamic-rd=0.00 / signhide / no-tskip / nr-intra=0 / nr-inter=0 / no-constrained-intra / strong-intra-smoothing / max-merge=3 / limit-refs=3 / no-limit-modes / me=3 / subme=5 / merange=57 / temporal-mvp / weightp / weightb / no-analyze-src-pics / deblock=-3:-3 / no-sao / no-sao-non-deblock / rd=4 / no-early-skip / rskip / no-fast-intra / no-tskip-fast / no-cu-lossless / b-intra / rdpenalty=0 / psy-rd=1.00 / psy-rdoq=1.00 / no-rd-refine / analysis-mode=0 / no-lossless / cbqpoffs=0 / crqpoffs=0 / rc=crf / crf=16.0 / qcomp=0.60 / qpstep=4 / stats-write=0 / stats-read=0 / ipratio=1.40 / pbratio=1.30 / aq-mode=1 / aq-strength=0.60 / cutree / zone-count=0 / no-strict-cbr / qg-size=32 / no-rc-grain / qpmax=69 / qpmin=0 / sar=0 / overscan=0 / videoformat=5 / range=0 / colorprim=2 / transfer=2 / colormatrix=2 / chromaloc=0 / display-window=0 / max-cll=0,0 / min-luma=0 / max-luma=1023 / log2-max-poc-lsb=8 / vui-timing-info / vui-hrd-info / slices=1 / opt-qp-pps / opt-ref-list-length-pps / no-multi-pass-opt-rps / scenecut-bias=0.05 / no-opt-cu-delta-qp / no-aq-motion / no-hdr / no-hdr-opt / refine-level=5
Default : Yes
Forced : No
Audio #1
ID : 2
Format : AC-3
Format/Info : Audio Coding 3
Mode extension : CM (complete main)
Format settings, Endianness : Big
Codec ID : A_AC3
Duration : 2h 15mn
Bit rate mode : Constant
Bit rate : 384 Kbps
Channel(s) : 6 channels
Channel positions : Front: L C R, Side: L R, LFE
Sampling rate : 48.0 KHz
Frame rate : 31.250 fps (1536 spf)
Compression mode : Lossy
Stream size : 373 MiB (9%)
Title : Dub
Language : Russian
Default : Yes
Forced : No
Audio #2
ID : 3
Format : AAC
Format/Info : Advanced Audio Codec
Format profile : LC
Codec ID : A_AAC
Duration : 2h 15mn
Bit rate : 401 Kbps
Channel(s) : 6 channels
Channel positions : Front: L C R, Side: L R, LFE
Sampling rate : 48.0 KHz
Frame rate : 46.875 fps (1024 spf)
Compression mode : Lossy
Stream size : 389 MiB (9%)
Title : Original
Language : English
Default : No
Forced : No
Text #1
ID : 4
Format : UTF-8
Codec ID : S_TEXT/UTF8
Codec ID/Info : UTF-8 Plain Text
Duration : 2h 6mn
Bit rate : 0 bps
Count of elements : 12
Stream size : 378 Bytes (0%)
Title : Forced
Language : Russian
Default : Yes
Forced : Yes
Text #2
ID : 5
Format : UTF-8
Codec ID : S_TEXT/UTF8
Codec ID/Info : UTF-8 Plain Text
Duration : 2h 14mn
Bit rate : 74 bps
Count of elements : 1547
Stream size : 73.8 KiB (0%)
Title : Full
Language : Russian
Default : No
Forced : No
Text #3
ID : 6
Format : UTF-8
Codec ID : S_TEXT/UTF8
Codec ID/Info : UTF-8 Plain Text
Duration : 2h 14mn
Bit rate : 47 bps
Count of elements : 1578
Stream size : 46.7 KiB (0%)
Title : Full
Language : English
Default : No
Forced : No
Menu
00:00:00.000 : en:00:00:00.000
00:09:56.177 : en:00:09:56.177
00:15:10.116 : en:00:15:10.116
00:22:14.082 : en:00:22:14.082
00:32:33.701 : en:00:32:33.701
00:36:52.126 : en:00:36:52.126
00:42:29.170 : en:00:42:29.170
00:48:03.463 : en:00:48:03.463
00:53:18.903 : en:00:53:18.903
00:58:45.938 : en:00:58:45.938
01:05:52.239 : en:01:05:52.239
01:11:12.434 : en:01:11:12.434
01:18:43.592 : en:01:18:43.592
01:23:55.320 : en:01:23:55.320
01:30:24.752 : en:01:30:24.752
01:39:36.177 : en:01:39:36.177
01:47:06.211 : en:01:47:06.211
01:54:21.604 : en:01:54:21.604
01:58:53.708 : en:01:58:53.708
02:07:13.458 : en:02:07:13.458

x265

x265 [info]: HEVC encoder version 2.3+27-7e137e3ae083
x265 [info]: build info [Windows][GCC 5.3.1][64 bit] 10bit
x265 [info]: using cpu capabilities: MMX2 SSE2Fast SSSE3 SSE4.2 AVX AVX2 FMA3 LZCNT BMI2
x265 [info]: Main 10 profile, Level-4 (Main tier)
x265 [info]: Thread pool created using 4 threads
x265 [info]: Slices : 1
x265 [info]: frame threads / pool features : 2 / wpp(13 rows)
x265 [info]: Coding QT: max CU size, min CU size : 64 / 8
x265 [info]: Residual QT: max TU size, max depth : 32 / 4 inter / 4 intra
x265 [info]: ME / range / subpel / merge : star / 57 / 5 / 3
x265 [info]: Keyframe min / max / scenecut / bias: 23 / 250 / 40 / 5.00
x265 [info]: Lookahead / bframes / badapt : 60 / 10 / 2
x265 [info]: b-pyramid / weightp / weightb : 1 / 1 / 1
x265 [info]: References / ref-limit cu / depth : 4 / on / on
x265 [info]: AQ: mode / str / qg-size / cu-tree : 1 / 0.6 / 32 / 1
x265 [info]: Rate Control / qCompress : CRF-16.0 / 0.60
x265 [info]: tools: rd=4 psy-rd=1.00 rdoq=2 psy-rdoq=1.00 rskip limit-tu=4
x265 [info]: tools: signhide tmvp b-intra strong-intra-smoothing
x265 [info]: tools: deblock(tC=-3:B=-3)
x265 [info]: frame I: 2227, Avg QP:15.17 kb/s: 21115.70
x265 [info]: frame P: 43067, Avg QP:16.72 kb/s: 9802.66
x265 [info]: frame B: 150019, Avg QP:21.88 kb/s: 1697.69
x265 [info]: Weighted P-Frames: Y:8.8% UV:7.4%
x265 [info]: Weighted B-Frames: Y:10.4% UV:8.4%
x265 [info]: consecutive B-frames: 12.6% 5.1% 5.8% 41.8% 8.2% 14.2% 3.7% 6.5% 1.1% 0.6% 0.4%
encoded 195313 frames in 130755.35s (1.49 fps), 3706.26 kb/s, Avg QP:20.67
[Профиль] [ЛС]
Показать сообщения:    

Текущее время: Сегодня 19:04

Часовой пояс: GMT



Вы не можете начинать темы
Вы не можете отвечать на сообщения
Вы не можете редактировать свои сообщения
Вы не можете удалять свои сообщения
Вы не можете голосовать в опросах
Вы не можете прикреплять файлы к сообщениям
Вы не можете скачивать файлы