Стражи Галактики. Часть 2 / Guardians of the Galaxy Vol. 2 (2017) WEB-DL 720p | iTunes

 
Автор Сообщение

BOSS ®

Пол:

Стаж: 3 года

Сообщений: 7612

Откуда: ODESSA



Награды: 22 (Подробнее)

Mega Releaser 1 (Количество: 1) Mega Releaser 4 (Количество: 1) Mega Releaser 3 (Количество: 1)
Торрент-статистика

Создавать темы 08-Авг-2017 04:20

[Цитировать]

Информация о фильме
Название: Стражи Галактики. Часть 2
Оригинальное название: Guardians of the Galaxy Vol. 2
Год выхода: 2017
Жанр: фантастика, боевик, приключения
Режиссер: Джеймс Ганн
В ролях: Крис Прэтт, Зои Салдана, Дэйв Батиста, Вин Дизель, Брэдли Купер, Майкл Рукер, Карен Гиллан, Пом Клементьефф, Элизабет Дебики, Курт Расселл
О фильме:
Все в сборе: землянин Питер Квилл (Звездный Лорд), молчаливый громила Дракс, зеленокожая наемница Гамора, живое дерево Грут и говорящий енот. Герои не изменяют себе и с завидной регулярностью продолжают попадать в немыслимые ситуации, выпутываясь из них почти без ущерба (а иногда даже с пользой) для окружающих. На этот раз им предстоит раскрыть одну из самых главных тайн во всей Галактике: кто же на самом деле отец Питера Квилла?

Страна: США
Продолжительность: 02:16:01
Перевод: Профессиональный (дублированный) iTunes
Файл
Формат: MKV
Источник: iTunes
Видео: 1280x536 at 24.000 fps, MPEG-4 AVC, ~3907 kbps avg
Aудио#1: Russian: 48 kHz, AC3, 3/2 (L,C,R,l,r) + LFE ch, ~384.00 kbps avg
Aудио#2: English: 48 kHz, AC3, 3/2 (L,C,R,l,r) + LFE ch, ~384.00 kbps avg
Субтитры: Russian (Forced, iTunes), Russian (iTunes), English (Forced, iTunes), English (iTunes)
Сохранены оригинальные главы.
Релиз от:

MediaInfo

General
Unique ID : 188484187156115809243758592353577830943 (0x8DCCBBE7FF4362EB82A18F2FD2E18A1F)
Complete name : Guardians.of.the.Galaxy.Vol.2.2017.720p.WEB-DL.Rus.Eng.mkv
Format : Matroska
Format version : Version 2
File size : 4.53 GiB
Duration : 2 h 16 min
Overall bit rate : 4 770 kb/s
Movie name : Guardians of the Galaxy Vol. 2 (2017) - Release for HDCLUB
Encoded date : UTC 2017-08-07 18:55:03
Writing application : mkvmerge v3.4.0 ('Rapunzel') built on May 15 2010 09:38:20
Writing library : libebml v0.8.0 + libmatroska v0.9.0
Video
ID : 1
Format : AVC
Format/Info : Advanced Video Codec
Format profile : Main@L3.1
Format settings, CABAC : No
Format settings, ReFrames : 2 frames
Codec ID : V_MPEG4/ISO/AVC
Duration : 2 h 16 min
Bit rate : 3 907 kb/s
Width : 1 280 pixels
Height : 536 pixels
Display aspect ratio : 2.40:1
Frame rate mode : Constant
Frame rate : 24.000 FPS
Color space : YUV
Chroma subsampling : 4:2:0
Bit depth : 8 bits
Scan type : Progressive
Bits/(Pixel*Frame) : 0.237
Stream size : 3.71 GiB (82%)
Title : Guardians of the Galaxy Vol. 2 (2017) - Release for HDCLUB
Language : English
Default : Yes
Forced : No
Color range : Limited
Color primaries : BT.709
Transfer characteristics : BT.709
Matrix coefficients : BT.709
Audio #1
ID : 2
Format : AC-3
Format/Info : Audio Coding 3
Format settings, Endianness : Big
Codec ID : A_AC3
Duration : 2 h 16 min
Bit rate mode : Constant
Bit rate : 384 kb/s
Channel(s) : 6 channels
Channel positions : Front: L C R, Side: L R, LFE
Sampling rate : 48.0 kHz
Frame rate : 31.250 FPS (1536 spf)
Bit depth : 16 bits
Compression mode : Lossy
Stream size : 374 MiB (8%)
Title : AC3 5.1 @ 384 kbps - DUB, iTunes
Language : Russian
Service kind : Complete Main
Default : Yes
Forced : No
Audio #2
ID : 3
Format : AC-3
Format/Info : Audio Coding 3
Format settings, Endianness : Big
Codec ID : A_AC3
Duration : 2 h 16 min
Bit rate mode : Constant
Bit rate : 384 kb/s
Channel(s) : 6 channels
Channel positions : Front: L C R, Side: L R, LFE
Sampling rate : 48.0 kHz
Frame rate : 31.250 FPS (1536 spf)
Bit depth : 16 bits
Compression mode : Lossy
Stream size : 374 MiB (8%)
Title : AC3 5.1 @ 384 kbps
Language : English
Service kind : Complete Main
Default : No
Forced : No
Text #1
ID : 4
Format : UTF-8
Codec ID : S_TEXT/UTF8
Codec ID/Info : UTF-8 Plain Text
Title : Forced, iTunes
Language : Russian
Default : Yes
Forced : No
Text #2
ID : 5
Format : UTF-8
Codec ID : S_TEXT/UTF8
Codec ID/Info : UTF-8 Plain Text
Title : iTunes
Language : Russian
Default : No
Forced : No
Text #3
ID : 6
Format : UTF-8
Codec ID : S_TEXT/UTF8
Codec ID/Info : UTF-8 Plain Text
Title : Forced, iTunes
Language : English
Default : No
Forced : No
Text #4
ID : 7
Format : UTF-8
Codec ID : S_TEXT/UTF8
Codec ID/Info : UTF-8 Plain Text
Title : iTunes
Language : English
Default : No
Forced : No
Menu
00:00:00.000 : en:King Cobra & Giant Sea Monkey
00:09:56.000 : en:Golden Morons
00:15:10.000 : en:Space Chase
00:22:14.000 : en:Not From Missouri
00:32:33.000 : en:Deepest, Darkest Secrets
00:36:52.000 : en:Berhert Ambush
00:42:29.000 : en:Finding Meaning
00:48:03.000 : en:Taserface
00:53:19.000 : en:Celestial Catch
00:58:46.000 : en:Let's Agree To Never Discuss This
01:05:52.000 : en:Eclector Escape
01:11:12.000 : en:Sibling Rivalry
01:18:43.000 : en:Eternity
01:23:55.000 : en:Two Of A Kind
01:30:24.000 : en:Inflated Ego
01:39:36.000 : en:What A Day
01:47:06.000 : en:From The Heart
01:54:21.000 : en:A Father's Sacrifice
01:58:52.000 : en:The Colors Of Ogord
02:07:13.000 : en:End Credits
[Профиль] [ЛС]
Показать сообщения:    

Текущее время: Сегодня 02:56

Часовой пояс: GMT



Вы не можете начинать темы
Вы не можете отвечать на сообщения
Вы не можете редактировать свои сообщения
Вы не можете удалять свои сообщения
Вы не можете голосовать в опросах
Вы не можете прикреплять файлы к сообщениям
Вы не можете скачивать файлы