Стражи Белого Дома / THE PRESIDENTS\' GATEKEEPERS (Gedeon Naudet, Jules Naudet / Гедеон Ноде, Жюль Ноде) (4 серии из 4) [09/05/2014, Документальный, DVB]

 
Автор Сообщение

reversefile ®

Пол:

Стаж: 4 года 5 месяцев

Сообщений: 842

Откуда: ReverseFile.org



Награды: Нет

Торрент-статистика

Создавать темы 24-Июл-2014 17:55

[Цитировать]

Стражи Белого Дома / THE PRESIDENTS' GATEKEEPERS
Дата/Год выпуска: 09/05/2014
Страна: США
Жанр: Документальный
Продолжительность: 4 серии по 44 мин.
Перевод: Одноголосый закадровый
Русские субтитры: нет
Оригинальная аудиодорожка: английский
Режиссер: Gedeon Naudet, Jules Naudet / Гедеон Ноде, Жюль Ноде
Телеканал: Discovery World
Описание: Они не самым влиятельные люди в мире, но они сидят рядом с Президентом.
Любой, кто следит за жизнью Белого Дома знает, что в Западном крыле руководитель аппарата президента является одной из наиболее важных должностей. Но это также верно в реальной жизни: Бывший вице-президент Дик Чейни, как только сказал, что это положение большей значимости, чем вице-президента. В Белом Доме было более 20 руководителей администрации в течение последних девяти лет президентства (среднее время нахождения в должности от одного до полутора лет, рекорд - пять лет), и все те, кто еще жив собрались вместе для того, чтобы дать интервью о своей работе.
Сэмпл: http://multi-up.com/972636
качество: DVB
формат: TS/M2TS
Видео: AVC, аноморф. 720х576, 4:3, 1063 Кбит/сек, 25 fps
Аудио 1: (Rus): MPEG Audio, 160 Кбит/сек, 48 КГц, 2 канала
Аудио 2: (Eng): MPEG Audio, 160 Кбит/сек, 48 КГц, 2 канала

MediaInfo

ОбщееИдентификатор : 16 (0x10)Полное имя : The President’s Gatekeepers’.tsФормат : MPEG-TSРазмер файла : 460 МбайтПродолжительность : 44 м.Режим общего битрейта : ПеременныйОбщий поток : 1458 Кбит/сек
ВидеоИдентификатор : 1407 (0x57F)Идентификатор меню : 407 (0x197)Формат : AVCФормат/Информация : Advanced Video CodecПрофиль формата : Main@L3.0Параметр CABAC формата : ДаПараметр ReFrames формата : 3 кадраПараметр GOP формата : M=4, N=28Идентификатор кодека : 27Продолжительность : 44 м.Битрейт : 1063 Кбит/секШирина : 720 пикселейВысота : 576 пикселейСоотношение сторон : 4:3Частота кадров : 25,000 кадров/секСтандарт вещания : PALЦветовое пространство : YUVСубдискретизация насыщенности : 4:2:0Битовая глубина : 8 битТип развёртки : ЧересстрочнаяПорядок развёртки : Верхнее поле первоеБит/(Пиксели*Кадры) : 0.103Размер потока : 335 Мбайт (73%)Основные цвета : BT.601 PALХарактеристики трансфера : BT.470 System B, BT.470 System GКоэффициенты матрицы : BT.601
Аудио #1Идентификатор : 2407 (0x967)Идентификатор меню : 407 (0x197)Формат : MPEG AudioВерсия формата : Version 1Профиль формата : Layer 2Идентификатор кодека : 4Продолжительность : 44 м.Вид битрейта : ПостоянныйБитрейт : 160 Кбит/секКаналы : 2 каналаЧастота : 48,0 КГцМетод сжатия : С потерямиЗадержка видео : 5 мс.Размер потока : 50,4 Мбайт (11%)Язык : stdЯзык, дополнительно : Clean effects
Аудио #2Идентификатор : 3407 (0xD4F)Идентификатор меню : 407 (0x197)Формат : MPEG AudioВерсия формата : Version 1Профиль формата : Layer 2Идентификатор кодека : 4Продолжительность : 44 м.Вид битрейта : ПостоянныйБитрейт : 160 Кбит/секКаналы : 2 каналаЧастота : 48,0 КГцМетод сжатия : С потерямиЗадержка видео : 53 мс.Размер потока : 50,4 Мбайт (11%)Язык : EnglishЯзык, дополнительно : Clean effects

Скриншоты

[Профиль] [ЛС]
Показать сообщения:    

Текущее время: Сегодня 17:36

Часовой пояс: GMT



Вы не можете начинать темы
Вы не можете отвечать на сообщения
Вы не можете редактировать свои сообщения
Вы не можете удалять свои сообщения
Вы не можете голосовать в опросах
Вы не можете прикреплять файлы к сообщениям
Вы не можете скачивать файлы