Страдающий амнезией / Amnesiac (Майкл Полиш / Michael Polish) [2015, США, Ужасы, триллер, драма, детектив, WEB-DLRip] DVO (datynet & Galina Vasyukova)

 
Автор Сообщение

TorrentFilm ®

Пол:

Стаж: 2 года

Сообщений: 7741



Награды: Нет

Торрент-статистика

Создавать темы 09-Сен-2015 00:09

[Цитировать]

Страдающий амнезией / Amnesiac
Страна: США
Жанр: Ужасы, триллер, драма, детектив
Год выпуска: 2015
Продолжительность: 01:24:30
Перевод: Любительский (двухголосый закадровый) datynet & Galina Vasyukova; перевод: Куценко
Cубтитры: нет
Оригинальная аудиодорожка: нет
Режиссер: Майкл Полиш / Michael Polish
В ролях: Кейт Босворт, Уэс Бентли, Оливия Роуз Кигэн, Шэшони Холл, Ричард Рили, Патрик Бошо, Миа Баррон
Описание: После страшной аварии, мужчина просыпается в постели, страдая от потери памяти. Пытаясь поглотить то, что происходит, начинает распутывать паутину лжи и обмана, подозревая свою жену, что она его держит, как пленника в собственном доме.
Сэмпл: http://multi-up.com/1064848
Качество видео: WEB-DLRip
Формат видео: AVI
Видео:Xvid 720x304 23.976fps 1958kbps
Аудио: Dolby AC3 48000Hz stereo 192kbps

MediaInfo

Общее
Полное имя : G:\Amnesiac.2015.WEB-DLRip.avi
Формат : AVI
Формат/Информация : Audio Video Interleave
Размер файла : 1,28 Гбайт
Продолжительность : 1 ч. 24 м.
Общий поток : 2160 Кбит/сек
Программа кодирования : VirtualDubMod 1.5.10.3 | www.virtualdub-fr.org || (build 2550/release)
Библиотека кодирования : VirtualDubMod build 2550/release
Видео
Идентификатор : 0
Формат : MPEG-4 Visual
Профиль формата : Advanced Simple@L5
Параметр BVOP формата : 2
Параметр QPel формата : Нет
Параметр GMC формата : Без точки перехода
Параметр матрицы формата : Default (H.263)
Режим смешивания : Сжатый битовый поток
Идентификатор кодека : XVID
Идентификатор кодека/Подсказка : XviD
Продолжительность : 1 ч. 24 м.
Битрейт : 1959 Кбит/сек
Ширина : 720 пикселей
Высота : 304 пикселя
Соотношение сторон : 2,35:1
Частота кадров : 23,976 кадра/сек
Цветовое пространство : YUV
Субдискретизация насыщенности : 4:2:0
Битовая глубина : 8 бит
Тип развёртки : Прогрессивная
Метод сжатия : С потерями
Бит/(Пиксели*Кадры) : 0.373
Размер потока : 1,16 Гбайт (91%)
Библиотека кодирования : XviD 66
Аудио
Идентификатор : 1
Формат : AC-3
Формат/Информация : Audio Coding 3
Расширение режима : CM (complete main)
Параметр Endianness формата : Big
Идентификатор кодека : 2000
Продолжительность : 1 ч. 24 м.
Вид битрейта : Постоянный
Битрейт : 192 Кбит/сек
Каналы : 2 канала
Расположение каналов : Front: L R
Частота : 48,0 КГц
Метод сжатия : С потерями
Размер потока : 116 Мбайт (9%)
Выравнивание : Разделение по промежуткам
Продолжительность промежутка : 42 мс. (1,00 видеокадр)
Время предзагрузки промежутка : 500 мс.
[Профиль] [ЛС]
Показать сообщения:    

Текущее время: Сегодня 08:16

Часовой пояс: GMT



Вы не можете начинать темы
Вы не можете отвечать на сообщения
Вы не можете редактировать свои сообщения
Вы не можете удалять свои сообщения
Вы не можете голосовать в опросах
Вы не можете прикреплять файлы к сообщениям
Вы не можете скачивать файлы