Сто лет прощения / Cien años de perdón (2016) DVD-9 | L1

 
Автор Сообщение

достали все ®

Пол:

Стаж: 1 год 8 месяцев

Сообщений: 6545



Награды: 12 (Подробнее)

Mega Releaser 2 (Количество: 1) Top Releaser 2 (Количество: 1) Mega Seeder 1 (Количество: 1)
Торрент-статистика

Создавать темы 09-Сен-2016 03:24

[Цитировать]

Информация о фильме
Название: Сто лет прощения
Оригинальное название: Cien años de perdón
Год выхода: 2016
Жанр: Триллер, криминал
Режиссер: Даниэль Кальпарсоро
В ролях: Луис Тосар, Родриго Де ла Серна, Рауль Аревало, Хосе Коронадо, Патриция Вико, Хоакин Фуррьель, Лусиано Касерес, Мариан Альварес
Страна: Испания, Франция, Аргентина
Студия: Canal+ France, Ad hoc studios, Eurimages, Telecinco Cinema
Продолжительность: 01:36:53
Перевод: Любительский одноголосый (Хихикающий доктор)
Файл
Кодек: MPEG-2
Качество: DVD-9
Видео: MPEG2, NTSC 16:9 (720x480@853x480) VBR, 29,970 кадров/сек
Звук: Русский DD 2.0 (192 Kbps), Испанский DD 5.1 (384 Kbps)

Меню

DVDInfo

Title:
Size: 4.96 Gb ( 5 199 974 KBytes ) - DVD-9
Enabled regions: 1, 2, 3, 4, 5, 6, 7, 8
VTS_01 :
Play Length: 01:36:53
Video: NTSC 16:9 (720x480) VBR, Auto Pan&Scan
Audio:
Russian (Dolby AC3, 2 ch)
Espanol (Dolby AC3, 6 ch)
Menu Video:
NTSC 4:3 (704x480) VBR
Menu English Language Unit :
Root Menu

MediaInfo

Общее
Полное имя : D:ААА2Сто лет прощенияVIDEO_TSVTS_01_1.VOB
Формат : MPEG-PS
Размер файла : 1000 Мбайт
Продолжительность : 18 м.
Режим общего битрейта : Переменный
Общий поток : 7450 Кбит/сек
Библиотека кодирования : Created by Nero
Видео
Идентификатор : 224 (0xE0)
Формат : MPEG Video
Версия формата : Version 2
Профиль формата : Main@Main
Параметр BVOP формата : Да
Параметр матрицы формата : Выборочная
Параметр GOP формата : M=3, N=15
Продолжительность : 18 м.
Вид битрейта : Переменный
Битрейт : 6726 Кбит/сек
Максимальный битрейт : 9448 Кбит/сек
Ширина : 720 пикселей
Высота : 480 пикселей
Соотношение сторон : 16:9
Частота кадров : 29,970 кадров/сек
Стандарт вещания : NTSC
Цветовое пространство : YUV
Субдискретизация насыщенности : 4:2:0
Битовая глубина : 8 бит
Тип развёртки : Прогрессивная
Порядок развёртки : Нижнее поле первое
Метод сжатия : С потерями
Бит/(Пиксели*Кадры) : 0.649
TimeCode_FirstFrame : 00:00:00:00
TimeCode_Source : Group of pictures header
Размер потока : 903 Мбайт (90%)
Библиотека кодирования : Created by Nero
Аудио #1
Идентификатор : 189 (0xBD)-128 (0x80)
Формат : AC-3
Формат/Информация : Audio Coding 3
Расширение режима : CM (complete main)
Параметр Endianness формата : Big
Режим смешивания : DVD-Video
Продолжительность : 18 м.
Вид битрейта : Постоянный
Битрейт : 192 Кбит/сек
Каналы : 2 канала
Расположение каналов : Front: L R
Частота : 48,0 КГц
Битовая глубина : 16 бит
Метод сжатия : С потерями
Размер потока : 25,8 Мбайт (3%)
Аудио #2
Идентификатор : 189 (0xBD)-129 (0x81)
Формат : AC-3
Формат/Информация : Audio Coding 3
Расширение режима : CM (complete main)
Параметр Endianness формата : Big
Режим смешивания : DVD-Video
Продолжительность : 18 м.
Вид битрейта : Постоянный
Битрейт : 384 Кбит/сек
Каналы : 6 каналов
Расположение каналов : Front: L C R, Side: L R, LFE
Частота : 48,0 КГц
Битовая глубина : 16 бит
Метод сжатия : С потерями
Размер потока : 51,5 Мбайт (5%)
Меню

Скриншоты

Релиз:
[Профиль] [ЛС]
Кто просматривает тему:

Показать сообщения:    

Текущее время: Сегодня 22:42

Часовой пояс: GMT



Вы не можете начинать темы
Вы не можете отвечать на сообщения
Вы не можете редактировать свои сообщения
Вы не можете удалять свои сообщения
Вы не можете голосовать в опросах
Вы не можете прикреплять файлы к сообщениям
Вы не можете скачивать файлы