Сторож мёртвых / Пазачът на мъртвите / Pazachyt na myrtvite (Илиан Симеонов / Илиян Симеонов) [2006, Болгария, Драма, TVRip] VO + Sub Rus + Болгарский

 
Автор Сообщение

TorrentFilm ®

Пол:

Стаж: 2 года

Сообщений: 7741



Награды: Нет

Торрент-статистика

Создавать темы 19-Дек-2014 02:00

[Цитировать]

Сторож мёртвых / Пазачът на мъртвите / Pazachyt na myrtvite
Страна: Болгария
Жанр: Драма
Год выпуска: 2006
Продолжительность: 01:44:41
Перевод: Одноголосый закадровый
Cубтитры: русские
Оригинальная аудиодорожка: Болгарский
Режиссер: Илиан Симеонов / Илиян Симеонов
В ролях: Диана Добрева, Владко Георгиев, Ицхак Финци, Самуел Финци
Описание: Тринадцатилетний подросток живет и работает на кладбище. Кладбище – это вся его жизнь, и юноша уважает смерть и буквально одержим ею. От юноши зависят его друзья: несчастливый старик, бывший заключенный, молящий судьбу о смерти, бывший художник, который все еще мечтает создать шедевр. Мальчик делает все возможное, чтобы помочь им. Старик пытается покончить жизнь самоубийством, но выбирая дату смерти и разглядывая прекрасный участок, который его друг отвел для его могилы, Старик находит силы жить дальше. Бывшего художника мальчик знакомит с красавицей Марией, но когда у них завязываются отношения, мальчик понимает, что Мария – дочь старика. Не рискуя представить девушку отцу, который ничего не знает о ее существовании, мальчик предпочитает скрыть правду.
Доп. информация: Фильм взят отсюда http://torrentfilm.net/forum/viewtopic.php?t=2842024
Сэмпл: http://multi-up.com/1013155
Качество видео: TVRip
Формат видео: AVI
Видео: 544x320 (1.70:1), 25.006 fps, DivX Codec 5.05 ~802 kbps avg, 0.18 bit/pixel
Аудио 1: 44.100 kHz, MPEG Layer 3, 2 ch, ~127.70 kbps avg(Русский)
Аудио 2: 44.100 kHz, MPEG Layer 3, 1 ch, ~95.87 kbps avg(Болгарский)
Формат субтитров: hardsub (неотключаемые) (PISCHA и KOROSTILEWLAD)

MediaInfo

Общее
Полное имя : F:\С моей озвучкой\Сторож мёртвых.avi
Формат : AVI
Формат/Информация : Audio Video Interleave
Размер файла : 780 Мбайт
Продолжительность : 1 ч. 44 м.
Общий поток : 1041 Кбит/сек
Программа кодирования : VirtualDubModRus 1.5.10.2 (build 2542/release)
Библиотека кодирования : VirtualDubMod build 2542/release
Видео
Идентификатор : 0
Формат : MPEG-4 Visual
Параметр BVOP формата : Нет
Параметр QPel формата : Нет
Параметр GMC формата : Без точки перехода
Параметр матрицы формата : Default (H.263)
Идентификатор кодека : DX50
Идентификатор кодека/Подсказка : DivX 5
Продолжительность : 1 ч. 44 м.
Битрейт : 803 Кбит/сек
Ширина : 544 пикселя
Высота : 320 пикселей
Соотношение сторон : 1,700
Частота кадров : 25,000 кадров/сек
Цветовое пространство : YUV
Субдискретизация насыщенности : 4:2:0
Битовая глубина : 8 бит
Тип развёртки : Прогрессивная
Метод сжатия : С потерями
Бит/(Пиксели*Кадры) : 0.185
Размер потока : 601 Мбайт (77%)
Библиотека кодирования : DivX 5.0.5 (UTC 2003-04-24)
Аудио #1
Идентификатор : 1
Формат : MPEG Audio
Версия формата : Version 1
Профиль формата : Layer 3
Режим : Joint stereo
Расширение режима : MS Stereo
Идентификатор кодека : 55
Идентификатор кодека/Подсказка : MP3
Продолжительность : 1 ч. 44 м.
Вид битрейта : Постоянный
Битрейт : 128 Кбит/сек
Каналы : 2 канала
Частота : 44,1 КГц
Метод сжатия : С потерями
Размер потока : 95,6 Мбайт (12%)
Выравнивание : Соединение по промежуткам
Продолжительность промежутка : 40 мс. (1,00 видеокадр)
Время предзагрузки промежутка : 522 мс.
Библиотека кодирования : LAME3.96
Аудио #2
Идентификатор : 2
Формат : MPEG Audio
Версия формата : Version 1
Профиль формата : Layer 3
Идентификатор кодека : 55
Идентификатор кодека/Подсказка : MP3
Продолжительность : 1 ч. 44 м.
Вид битрейта : Постоянный
Битрейт : 96,0 Кбит/сек
Каналы : 1 канал
Частота : 44,1 КГц
Метод сжатия : С потерями
Размер потока : 71,8 Мбайт (9%)
Выравнивание : Разделение по промежуткам
Продолжительность промежутка : 40 мс. (1,00 видеокадр)
Время предзагрузки промежутка : 500 мс.

Скриншоты

[Профиль] [ЛС]

Создавать темы 06-Авг-2015 22:54 (спустя 7 месяцев 18 дней)

Топик был перенесен из форума Фильмы до 2014 года в форум Фильмы до 2012 года
sergej644
 
Показать сообщения:    

Текущее время: Сегодня 02:15

Часовой пояс: GMT



Вы не можете начинать темы
Вы не можете отвечать на сообщения
Вы не можете редактировать свои сообщения
Вы не можете удалять свои сообщения
Вы не можете голосовать в опросах
Вы не можете прикреплять файлы к сообщениям
Вы не можете скачивать файлы