Столкновения с легендарными рыбами / Contact, avec des poissons légendaires [01-11] (2010) TVRip

 
Автор Сообщение

Russian Mafia ®

Пол:

Стаж: 1 год 8 месяцев

Сообщений: 4257



Награды: 10 (Подробнее)

Mega Seeder 1 (Количество: 1) Mega Seeder 5 (Количество: 1) Mega Seeder 4 (Количество: 1)
Торрент-статистика

Создавать темы 22-Авг-2016 17:13

[Цитировать]

Информация о фильме
Название: Столкновения с легендарными рыбами
Оригинальное название: CONTACT, avec des poissons légendaires
Страна: Франция
Студия: Tip Top Productions
Год выхода: 2010
Жанр: Документальный, рыбалка, путешествия, география, природа, приключения
О фильме:
"Контакт!" - слово, которое выкрикивает Франк Ирибарн в момент, когда добывает свой очередной трофей. Герой программы может позволить себе причуды, ведь он страстный любитель рыбалки, который не ищет легких путей. Франк ловит только самую крупную и необычную рыбу на водоёмах по всему миру, посещая Амазонку, Египет, Техас, Тайланд и другие регионы мира. В каждой серии программы Франк ловит новую рыбу - гигантского сома, щуку-маскинонга, реликтовую панцирную щуку, тайменя, тигровую рыбу, нильского окуня и даже гигантского змееголова.
Продолжительность: 00:60:00 серия
Перевод: Профессиональный (одноголосый)
Файл
Кодек: XviD
Качество: TVRip
Видео: 720x400 (16:9), 1457 Kbps, 25fps
Звук: MP3, 128 Kbps, 2 channels, 48.0 KHz

Список выпусков/серий

01. В этой серии программы рыболов Франк Ирибарн будет ловить багариевого сома в Индии.
02. В очередной серии программы рыболов Франк Ирибарн будет ловить знаменитого нильского окуня в Египте.
03. В следующем путешествии рыболовный эксперт Франк Ирибарн направится в Таиланд на поиски легендарного змееголова.
04. В этом эпизоде рыболов Франк Ирибарн будет ловить гигантского карпа в провинции Бин Эль Уидан в Марокко.
05. В очередной серии программы рыболов-эксперт Франк Ирибарн половит тайменя в Центральной Азии.
06. В этом путешествии рыболов-эксперт Франк Ирибарн половит крупного сома во Франции.
07. Рыболов-эксперт Франк Ирибарн отправляется в очередное путешествие, в рамках которого он половит гвинейского окуня.
08. В новом путешествии рыболов-эксперт Франк Ирибарн половит щуку-маскинонга в Канаде.
09. В очередной серии программы рыболов Франк Ирибарн отправляется в Техас на поиски знаменитой панцирной щуки.
10. На этот раз Франк Ирибарн направляется во Французскую Гвиану на поиски легендарной аймары, также известной как рыба-волк.
11. В этой серии программы рыболовный эксперт Франк Ирибарн отправится на рыбалку с племенем Камаюра в Бразилии.

Скриншоты

MediaInfo

General
Complete name : D:Столкновения с легендарными рыбамиСтолкновения с легендарными рыбами. Тайские змееголовы.avi
Format : AVI
Format/Info : Audio Video Interleave
File size : 670 MiB
Duration : 58mn 39s
Overall bit rate : 1 598 Kbps
Writing application : Lavf57.25.100
Video
ID : 0
Format : MPEG-4 Visual
Format profile : Advanced Simple@L5
Format settings, BVOP : 1
Format settings, QPel : No
Format settings, GMC : No warppoints
Format settings, Matrix : Default (H.263)
Codec ID : XVID
Codec ID/Hint : XviD
Duration : 58mn 39s
Bit rate : 1 457 Kbps
Width : 720 pixels
Height : 400 pixels
Display aspect ratio : 16:9
Frame rate : 25.000 fps
Color space : YUV
Chroma subsampling : 4:2:0
Bit depth : 8 bits
Scan type : Progressive
Compression mode : Lossy
Bits/(Pixel*Frame) : 0.202
Stream size : 611 MiB (91%)
Writing library : XviD 67
Audio
ID : 1
Format : MPEG Audio
Format version : Version 1
Format profile : Layer 3
Mode : Joint stereo
Mode extension : MS Stereo
Codec ID : 55
Codec ID/Hint : MP3
Duration : 58mn 39s
Bit rate mode : Constant
Bit rate : 128 Kbps
Channel(s) : 2 channels
Sampling rate : 48.0 KHz
Compression mode : Lossy
Stream size : 53.7 MiB (8%)
Alignment : Aligned on interleaves
Interleave, duration : 24 ms (0.60 video frame)
[Профиль] [ЛС]
Кто просматривает тему:

Форум Тема Автор Размер
Зарубежные Мультфильмы (BDRip 1080p, 720p, Blu-ray, BD-Remux) Ледниковый период: Столкновение неизбежно / Ice Age: Collision Course (2016) BDRemux 1080p | 3D-Video | Лицензия BOSS 31.37 GB
Зарубежные Мультфильмы (BDRip 1080p, 720p, Blu-ray, BD-Remux) Ледниковый период: Столкновение неизбежно / Ice Age: Collision Course (2016) BDRip 1080p | Лицензия BOSS 8.76 GB
Зарубежные Мультфильмы (BDRip 1080p, 720p, Blu-ray, BD-Remux) Ледниковый период: Столкновение неизбежно / Ice Age: Collision Course (2016) BDRip 720p | Лицензия BOSS 5.59 GB
Зарубежные мультфильмы Ледниковый период: Столкновение неизбежно / Ice Age: Collision Course (2016) BDRip | Лицензия BOSS 1.46 GB
Зарубежные мультфильмы Ледниковый период: Столкновение неизбежно / Ice Age: Collision Course (2016) BDRip от HELLYWOOD Russian Mafia 2.05 GB
Зарубежные Мультфильмы (DVD) Ледниковый период: Столкновение неизбежно / Ice Age: Collision Course (2016) DVD9 | Custom BOSS 6.64 GB
Трейлеры Ледниковый период: Столкновение неизбежно / Ice Age: Collision Course (2016) HDRip-1080p | Трэйлер Russian Mafia 138 MB
Фильмы (HD DVD, Blu-ray и BDRemux) Столкновение / Crash (2004) BDRip 720p by msltel | D, P2, A | Режиссёрская версия Белочка 6.17 GB
Показать сообщения:    

Текущее время: Сегодня 01:27

Часовой пояс: GMT



Вы не можете начинать темы
Вы не можете отвечать на сообщения
Вы не можете редактировать свои сообщения
Вы не можете удалять свои сообщения
Вы не можете голосовать в опросах
Вы не можете прикреплять файлы к сообщениям
Вы не можете скачивать файлы