Столкновение / Crash (2004) BDRip 720p by msltel | D, P2, A | Режиссёрская версия

 
Автор Сообщение

Белочка ®

Пол:

Стаж: 5 лет 1 месяц

Сообщений: 2089



Награды: 1 (Подробнее)

Girls (Количество: 1)
Торрент-статистика

Создавать темы 14-Окт-2014 18:34

[Цитировать]

Год выпуска: 2004
Страна: Германия, США
Жанр: драма, криминал
Продолжительность: 01:55:00
Перевод: дублированный, профессиональный двухголосый, авторский
Субтитры: русские, английские
Режиссёр: Пол Хаггис
В ролях: Дон Чидл, Мэтт Диллон, Райан Филипп, Терренс Ховард, Сандра Баллок, Тэнди Ньютон, Брендан Фрейзер, Майкл Пенья, Шон Тоуб, Лудакрис, Бахар Сумех, Дженнифер Эспозито, Кит Дэвид, Уильям Фихтнер, Лоренц Тейт, Кен Гарито, Джек МакГи, Грег Йюнг Пайк, Алексис Ри, Эшлин Санчез, Билли Галло, Карина Арройяве, Беверли Тодд, Дато Бахтадзе, Арт Чудабала, Шон Кори, Тони Данца, Лоретта Дивайн, Име Етук, Эдди Дж. Фернандез, Ховард Фонг, Нона Гэй, Октавио Гомез, Джеймс Хаггис, Силва Келегиан, Дэниэл Дэ Ким, Брюс Кёрби, Джейден Ланд, Аманда Мореско
Описание: Закон и преступление, порядок и беспредел, защитник и жертва — неизбежное противостояние и столкновение. Полицейские — порядок; законопослушные граждане — закон. Но все ли граждане, слывущие добропорядочными, соблюдают законы, и всем ли представителям закона стоит доверять. Прикрываясь значком полицейского, они вершат беззаконие и из праведников превращаются в изощренных насильников...

Качество: BDRip 720p Сравнение с исходником
Формат: MKV
Видео кодек: H.264
Видео: 1280x542, 5412 kbps, 23.976 кадра/с, 0.325 bpp
Аудио 1: русский, AC3, 384 kbps, 6 ch, 48 kHz [дублированный, R5, Мосфильм-мастер, перевод Гланца на расширенные эпизоды]
Аудио 2: русский, AC3, 448 kbps, 6 ch, 48 kHz [профессиональный двухголосый, Пётр Гланц и Татьяна Казакова]
Аудио 3: русский, AC3, 448 kbps, 6 ch, 48 kHz [профессиональный двухголосый, Tycoon, перевод Гланца на расширенные эпизоды]
Аудио 4: русский, AC3, 384 kbps, 6 ch, 48 kHz [авторский, Андрей Гаврилов]
Аудио 5: английский, AC3, 448 kbps, 6 ch, 48 kHz [оригинал]
Имеются неименованные главы/чаптеры.

Награды

Специальный приз на кинофестивале в Довилле, премия Национального совета обозревателей — за «прорыв» актёра (Терренс Хауард — также за роли в лентах «Разбогатей или сдохни» / Get Rich or Die Tryin’ и «Расслабуха проституток» / Hustle & Flow), «Золотой сателлит» за актёрский ансамбль, «Давид» Донателло» за лучший иностранный фильм в Италии, 2 премии «Независимый дух» — за дебют и второплановую мужскую роль (Мэтт Диллон), 2 приза «Имидж» — за фильм и второплановую мужскую роль (Терренс Хауард), все премии — по итогам 2005 года.
Оскар, 2006 год
Победитель (3):
Лучший фильм
Лучший сценарий
Лучший монтаж
Номинации (3):
Лучшая мужская роль второго плана (Мэтт Диллон)
Лучший режиссер (Пол Хаггис)
Лучшая песня — «In the Deep»
Золотой глобус, 2006 год
Номинации (2):
Лучшая мужская роль второго плана (Мэтт Диллон)
Лучший сценарий
Британская академия, 2006 год
Победитель (2):
Лучшая женская роль второго плана (Тэнди Ньютон)
Лучший оригинальный сценарий
Номинации (7):
Лучший фильм
Лучшая мужская роль второго плана (Мэтт Диллон)
Лучшая мужская роль второго плана (Дон Чидл)
Лучшая работа оператора
Лучший звук
Лучший монтаж
Премия имени Дэвида Лина за достижения в режиссуре (Пол Хаггис)
Премия Гильдии актеров, 2006 год
Победитель (1):
Лучший актерский состав
Номинации (2):
Лучшая мужская роль второго плана (Дон Чидл)
Лучшая мужская роль второго плана (Мэтт Диллон)
Европейская киноакадемия, 2005 год
Номинации (1):
Приз Screen International Award

MediaInfo

frame I:1123 Avg QP:17.64 size: 74842
frame P:30377 Avg QP:18.63 size: 45215
frame B:133956 Avg QP:20.72 size: 24934
Общее
Уникальный идентификатор : 197167266026191519982915040599381692585 (0x945508BF5166DD3D83D9ED95582CD0A9)
Полное имя : D:VideoStolknovenie.2004.BDRip.720p.mkv
Формат : Matroska
Версия формата : Version 4 / Version 2
Размер файла : 6,17 Гбайт
Продолжительность : 1 ч. 55 м.
Общий поток : 7677 Кбит/сек
Дата кодирования : UTC 2014-10-14 09:32:27
Программа кодирования : mkvmerge v6.9.1 ('Blue Panther') 64bit built on Apr 18 2014 18:23:38
Библиотека кодирования : libebml v1.3.0 + libmatroska v1.4.1
Видео
Идентификатор : 1
Формат : AVC
Формат/Информация : Advanced Video Codec
Профиль формата : High@L4.1
Параметр CABAC формата : Да
Параметр ReFrames формата : 9 кадров
Идентификатор кодека : V_MPEG4/ISO/AVC
Продолжительность : 1 ч. 55 м.
Битрейт : 5412 Кбит/сек
Ширина : 1280 пикселей
Высота : 542 пикселя
Соотношение сторон : 2,35:1
Режим частоты кадров : Постоянный
Частота кадров : 23,976 кадра/сек
Цветовое пространство : YUV
Субдискретизация насыщенности : 4:2:0
Битовая глубина : 8 бит
Тип развёртки : Прогрессивная
Бит/(Пиксели*Кадры) : 0.325
Размер потока : 4,35 Гбайт (70%)
Заголовок : BDRip -- STarankov
Библиотека кодирования : x264 core 142 r2431 ac76440
Настройки программы : cabac=1 / ref=9 / deblock=1:-1:-1 / analyse=0x3:0x113 / me=umh / subme=10 / psy=1 / psy_rd=1.00:0.15 / mixed_ref=1 / me_range=32 / chroma_me=1 / trellis=2 / 8x8dct=1 / cqm=0 / deadzone=21,11 / fast_pskip=1 / chroma_qp_offset=-3 / threads=6 / lookahead_threads=1 / sliced_threads=0 / nr=0 / decimate=1 / interlaced=0 / bluray_compat=0 / constrained_intra=0 / bframes=8 / b_pyramid=2 / b_adapt=2 / b_bias=0 / direct=3 / weightb=1 / open_gop=0 / weightp=2 / keyint=230 / keyint_min=23 / scenecut=40 / intra_refresh=0 / rc_lookahead=40 / rc=crf / mbtree=0 / crf=19.0 / qcomp=0.60 / qpmin=0 / qpmax=69 / qpstep=4 / vbv_maxrate=40000 / vbv_bufsize=50000 / crf_max=0.0 / nal_hrd=none / filler=0 / ip_ratio=1.40 / pb_ratio=1.30 / aq=1:1.00
Язык : English
Default : Да
Forced : Нет
Аудио #1
Идентификатор : 2
Формат : AC-3
Формат/Информация : Audio Coding 3
Расширение режима : CM (complete main)
Параметр Endianness формата : Big
Идентификатор кодека : A_AC3
Продолжительность : 1 ч. 55 м.
Вид битрейта : Постоянный
Битрейт : 384 Кбит/сек
Каналы : 6 каналов
Расположение каналов : Front: L C R, Side: L R, LFE
Частота : 48,0 КГц
Битовая глубина : 16 бит
Метод сжатия : С потерями
Размер потока : 316 Мбайт (5%)
Заголовок : DUB (R5, Мосфильм-мастер, перевод Гланца на расширенные эпизоды)
Язык : Russian
Default : Да
Forced : Нет
Аудио #2
Идентификатор : 3
Формат : AC-3
Формат/Информация : Audio Coding 3
Расширение режима : CM (complete main)
Параметр Endianness формата : Big
Идентификатор кодека : A_AC3
Продолжительность : 1 ч. 55 м.
Вид битрейта : Постоянный
Битрейт : 448 Кбит/сек
Каналы : 6 каналов
Расположение каналов : Front: L C R, Side: L R, LFE
Частота : 48,0 КГц
Битовая глубина : 16 бит
Метод сжатия : С потерями
Размер потока : 369 Мбайт (6%)
Заголовок : DVO (Пётр Гланц и Татьяна Казакова)
Язык : Russian
Default : Нет
Forced : Нет
Аудио #3
Идентификатор : 4
Формат : AC-3
Формат/Информация : Audio Coding 3
Расширение режима : CM (complete main)
Параметр Endianness формата : Big
Идентификатор кодека : A_AC3
Продолжительность : 1 ч. 55 м.
Вид битрейта : Постоянный
Битрейт : 448 Кбит/сек
Каналы : 6 каналов
Расположение каналов : Front: L C R, Side: L R, LFE
Частота : 48,0 КГц
Битовая глубина : 16 бит
Метод сжатия : С потерями
Размер потока : 369 Мбайт (6%)
Заголовок : DVO (Tycoon, перевод Гланца на расширенные эпизоды)
Язык : Russian
Default : Нет
Forced : Нет
Аудио #4
Идентификатор : 5
Формат : AC-3
Формат/Информация : Audio Coding 3
Расширение режима : CM (complete main)
Параметр Endianness формата : Big
Идентификатор кодека : A_AC3
Продолжительность : 1 ч. 55 м.
Вид битрейта : Постоянный
Битрейт : 384 Кбит/сек
Каналы : 6 каналов
Расположение каналов : Front: L C R, Side: L R, LFE
Частота : 48,0 КГц
Битовая глубина : 16 бит
Метод сжатия : С потерями
Размер потока : 316 Мбайт (5%)
Заголовок : AVO (Андрей Гаврилов)
Язык : Russian
Default : Нет
Forced : Нет
Аудио #5
Идентификатор : 6
Формат : AC-3
Формат/Информация : Audio Coding 3
Расширение режима : CM (complete main)
Параметр Endianness формата : Big
Идентификатор кодека : A_AC3
Продолжительность : 1 ч. 55 м.
Вид битрейта : Постоянный
Битрейт : 448 Кбит/сек
Каналы : 6 каналов
Расположение каналов : Front: L C R, Side: L R, LFE
Частота : 48,0 КГц
Битовая глубина : 16 бит
Метод сжатия : С потерями
Размер потока : 369 Мбайт (6%)
Заголовок : Original
Язык : English
Default : Нет
Forced : Нет
Текст #1
Идентификатор : 7
Формат : UTF-8
Идентификатор кодека : S_TEXT/UTF8
Идентификатор кодека/Информация : UTF-8 Plain Text
Заголовок : русский
Язык : Russian
Default : Нет
Forced : Нет
Текст #2
Идентификатор : 8
Формат : UTF-8
Идентификатор кодека : S_TEXT/UTF8
Идентификатор кодека/Информация : UTF-8 Plain Text
Заголовок : английский
Default : Нет
Forced : Нет
Меню
00:00:00.000 : :Chapter 01
00:07:48.342 : :Chapter 02
00:16:16.767 : :Chapter 03
00:25:09.174 : :Chapter 04
00:35:18.949 : :Chapter 05
00:42:58.826 : :Chapter 06
00:49:26.380 : :Chapter 07
01:00:26.289 : :Chapter 08
01:06:32.154 : :Chapter 09
01:16:01.180 : :Chapter 10
01:25:32.752 : :Chapter 11
01:33:24.180 : :Chapter 12
01:41:15.903 : :Chapter 13
01:47:39.202 : :Chapter 14
01:54:59.893 : :Chapter 15

Скриншоты (увеличить)

[Профиль] [ЛС]
Кто просматривает тему:

Форум Тема Автор Размер
Зарубежные Мультфильмы (BDRip 1080p, 720p, Blu-ray, BD-Remux) Ледниковый период: Столкновение неизбежно / Ice Age: Collision Course (2016) BDRemux 1080p | 3D-Video | Лицензия BOSS 31.37 GB
Зарубежные Мультфильмы (BDRip 1080p, 720p, Blu-ray, BD-Remux) Ледниковый период: Столкновение неизбежно / Ice Age: Collision Course (2016) BDRip 1080p | Лицензия BOSS 8.76 GB
Зарубежные Мультфильмы (BDRip 1080p, 720p, Blu-ray, BD-Remux) Ледниковый период: Столкновение неизбежно / Ice Age: Collision Course (2016) BDRip 720p | Лицензия BOSS 5.59 GB
Зарубежные мультфильмы Ледниковый период: Столкновение неизбежно / Ice Age: Collision Course (2016) BDRip | Лицензия BOSS 1.46 GB
Зарубежные мультфильмы Ледниковый период: Столкновение неизбежно / Ice Age: Collision Course (2016) BDRip от HELLYWOOD Russian Mafia 2.05 GB
Зарубежные Мультфильмы (DVD) Ледниковый период: Столкновение неизбежно / Ice Age: Collision Course (2016) DVD9 | Custom BOSS 6.64 GB
Трейлеры Ледниковый период: Столкновение неизбежно / Ice Age: Collision Course (2016) HDRip-1080p | Трэйлер Russian Mafia 138 MB
Фильмы (HD Rips | 720p, 1080p) Столкновение с бездной / Deep Impact (1998) BDRip 1080p | D, P2, A sergej644 7.76 GB
Показать сообщения:    

Текущее время: Сегодня 13:59

Часовой пояс: GMT



Вы не можете начинать темы
Вы не можете отвечать на сообщения
Вы не можете редактировать свои сообщения
Вы не можете удалять свои сообщения
Вы не можете голосовать в опросах
Вы не можете прикреплять файлы к сообщениям
Вы не можете скачивать файлы