Столкновение с бездной / Deep Impact (1998) BDRip 1080p | D, P2, A

 
Автор Сообщение

sergej644 ®

Пол:

Стаж: 5 лет 3 месяца

Сообщений: 6091

Откуда: Soviet Union



Награды: Нет

Торрент-статистика

Создавать темы 31-Окт-2014 15:11

[Цитировать]

--Столкновение с бездной / Deep Impact
Информация о фильме
Название: Столкновение с бездной
Оригинальное: Deep Impact
Год выхода: 1998
Страна: США
Выпущено: DreamWorks SKG, Manhattan Project, Paramount Pictures, Zanuck/Brown Productions
Жанр: Фантастика, боевик, триллер, драма, мелодрама
Продолжительность: 02:01:11
Перевод: Профессиональный (Дублированный, двухголосый, одноголосый) закадровый
Режиссер: Мими Ледер
В ролях: Роберт Дювалл, Теа Леони, Элайджа Вуд, Ванесса Редгрейв, Морган Фримен, Максимилиан Шелл, Джеймс Кромуэл, Рон Элдард, Джон Фавро, Лора Иннес, Александр Балуев, Майк О`Мэлли-Сюжет фильма
Земле грозит неизбежное столкновением с кометой, что приведет к гибели всего живого. Президент США сообщает миру, что до «столкновения с бездной» остается год. На комету отправляют корабль «Мессия» который должен взорвать комету. Но от взрыва комета разлетается на две части. Ничто не может спасти человечество. Как поведут себя люди?
-Файл
Кодек: x264
Формат: MKV
Качество: BDRip 1080p (Источник: Blu-ray Disc)
Видео: MPEG-4 AVC (2.35:1) 1920x816, 23.976 fps, 6860 kbps
Аудио:
#1: Dolby Digital (5.1) 16 bit, 48 kHz, 384 kbps (DUB)
#2: Dolby Digital (5.1) 16 bit, 48 kHz, 640 kbps (DVO "Премьер-видео")
#3: Dolby Digital (5.1) 16 bit, 48 kHz, 640 kbps (AVO "Ю. Живов")
#4: Dolby Digital (5.1) 16 bit, 48 kHz, 640 kbps (ENG "Original")
Субтитры: SRT Русские, Английские
Меню: Сохранены оригинальные чаптеры Blu-ray-

MI & x264

General
Unique ID : 230614900860076150092148190813860950548 (0xAD7ED07732ED89E28D95464F58D87214)
Format : Matroska
Format version : Version 2
File size : 7.76 GiB
Duration : 2h 1mn
Overall bit rate : 9 158 Kbps
Movie name : Столкновение с бездной (1998) BDRip (1080p)
Encoded date : UTC 2013-04-14 08:19:36
Writing application : mkvmerge v5.8.0 ('No Sleep / Pillow') built on Sep 2 2012 15:37:04
Writing library : libebml v1.2.3 + libmatroska v1.3.0
Video
ID : 1
Format : AVC
Format/Info : Advanced Video Codec
Format profile : High@L4.1
Format settings, CABAC : Yes
Format settings, ReFrames : 5 frames
Codec ID : V_MPEG4/ISO/AVC
Duration : 2h 1mn
Bit rate : 6 860 Kbps
Width : 1 920 pixels
Height : 816 pixels
Display aspect ratio : 2.35:1
Frame rate mode : Constant
Frame rate : 23.976 fps
Color space : YUV
Chroma subsampling : 4:2:0
Bit depth : 8 bits
Scan type : Progressive
Bits/(Pixel*Frame) : 0.183
Stream size : 5.65 GiB (73%)
Title : Release by Alex260680
Writing library : x264 core 130 r2273 b3065e6
Encoding settings : cabac=1 / ref=5 / deblock=1:-3:-3 / analyse=0x3:0x133 / me=umh / subme=11 / psy=1 / psy_rd=1.00:0.10 / mixed_ref=1 / me_range=32 / chroma_me=1 / trellis=2 / 8x8dct=1 / cqm=0 / deadzone=21,11 / fast_pskip=0 / chroma_qp_offset=-3 / threads=12 / lookahead_threads=1 / sliced_threads=0 / nr=0 / decimate=0 / interlaced=0 / bluray_compat=0 / constrained_intra=0 / bframes=5 / b_pyramid=2 / b_adapt=2 / b_bias=0 / direct=3 / weightb=1 / open_gop=0 / weightp=2 / keyint=240 / keyint_min=23 / scenecut=40 / intra_refresh=0 / rc=2pass / mbtree=0 / bitrate=6860 / ratetol=1.0 / qcomp=0.60 / qpmin=0 / qpmax=69 / qpstep=4 / cplxblur=20.0 / qblur=0.5 / ip_ratio=1.40 / pb_ratio=1.30 / aq=1:0.70
Language : English
Default : Yes
Forced : No
Audio #1
ID : 2
Format : AC-3
Format/Info : Audio Coding 3
Mode extension : CM (complete main)
Format settings, Endianness : Big
Codec ID : A_AC3
Duration : 2h 1mn
Bit rate mode : Constant
Bit rate : 384 Kbps
Channel(s) : 6 channels
Channel positions : Front: L C R, Side: L R, LFE
Sampling rate : 48.0 KHz
Bit depth : 16 bits
Compression mode : Lossy
Stream size : 333 MiB (4%)
Title : DUB
Language : Russian
Default : Yes
Forced : No
Audio #2
ID : 3
Format : AC-3
Format/Info : Audio Coding 3
Mode extension : CM (complete main)
Format settings, Endianness : Big
Codec ID : A_AC3
Duration : 2h 1mn
Bit rate mode : Constant
Bit rate : 640 Kbps
Channel(s) : 6 channels
Channel positions : Front: L C R, Side: L R, LFE
Sampling rate : 48.0 KHz
Bit depth : 16 bits
Compression mode : Lossy
Stream size : 555 MiB (7%)
Title : DVO (Премьер-видео)
Language : Russian
Default : No
Forced : No
Audio #3
ID : 4
Format : AC-3
Format/Info : Audio Coding 3
Mode extension : CM (complete main)
Format settings, Endianness : Big
Codec ID : A_AC3
Duration : 2h 1mn
Bit rate mode : Constant
Bit rate : 640 Kbps
Channel(s) : 6 channels
Channel positions : Front: L C R, Side: L R, LFE
Sampling rate : 48.0 KHz
Bit depth : 16 bits
Compression mode : Lossy
Stream size : 555 MiB (7%)
Title : AVO (Живов)
Language : Russian
Default : No
Forced : No
Audio #4
ID : 5
Format : AC-3
Format/Info : Audio Coding 3
Mode extension : CM (complete main)
Format settings, Endianness : Big
Codec ID : A_AC3
Duration : 2h 1mn
Bit rate mode : Constant
Bit rate : 640 Kbps
Channel(s) : 6 channels
Channel positions : Front: L C R, Side: L R, LFE
Sampling rate : 48.0 KHz
Bit depth : 16 bits
Compression mode : Lossy
Stream size : 555 MiB (7%)
Title : Original
Language : English
Default : No
Forced : No
Text #1
ID : 6
Format : UTF-8
Codec ID : S_TEXT/UTF8
Codec ID/Info : UTF-8 Plain Text
Language : Russian
Default : No
Forced : No
Text #2
ID : 7
Format : UTF-8
Codec ID : S_TEXT/UTF8
Codec ID/Info : UTF-8 Plain Text
Language : English
Default : No
Forced : No
Menu
00:00:00.000 : en:Chapter1
00:02:37.615 : en:Chapter2
00:07:01.754 : en:Chapter3
00:10:53.942 : en:Chapter4
00:17:10.988 : en:Chapter5
00:20:37.861 : en:Chapter6
00:22:21.631 : en:Chapter7
00:25:28.026 : en:Chapter8
00:35:00.931 : en:Chapter9
00:39:13.266 : en:Chapter10
00:43:58.885 : en:Chapter11
00:51:49.021 : en:Chapter12
00:56:17.539 : en:Chapter13
01:00:15.777 : en:Chapter14
01:05:01.813 : en:Chapter15
01:09:42.219 : en:Chapter16
01:13:53.345 : en:Chapter17
01:18:10.600 : en:Chapter18
01:20:08.301 : en:Chapter19
01:22:52.466 : en:Chapter20
01:25:20.323 : en:Chapter21
01:27:46.844 : en:Chapter22
01:31:53.591 : en:Chapter23
01:34:23.073 : en:Chapter24
01:38:45.042 : en:Chapter25
01:40:55.422 : en:Chapter26
01:43:22.279 : en:Chapter27
01:46:15.118 : en:Chapter28
01:51:43.488 : en:Chapter29
01:53:23.837 : en:Chapter30-x264 [info]: frame I:1179 Avg QP:15.44 size:162371
x264 [info]: frame P:43586 Avg QP:18.56 size: 63405
x264 [info]: frame B:129580 Avg QP:20.68 size: 25294
ДополнительноИспользуемое программное обеспечение: "Eac3to", "XviD4PSP", "Sonic Foundry Soft Encode", "SupRip", "MKVToolNix"
-Скриншоты
-
[Профиль] [ЛС]
Кто просматривает тему:

Форум Тема Автор Размер
Зарубежные Мультфильмы (BDRip 1080p, 720p, Blu-ray, BD-Remux) Ледниковый период: Столкновение неизбежно / Ice Age: Collision Course (2016) BDRemux 1080p | 3D-Video | Лицензия BOSS 31.37 GB
Зарубежные Мультфильмы (BDRip 1080p, 720p, Blu-ray, BD-Remux) Ледниковый период: Столкновение неизбежно / Ice Age: Collision Course (2016) BDRip 1080p | Лицензия BOSS 8.76 GB
Зарубежные Мультфильмы (BDRip 1080p, 720p, Blu-ray, BD-Remux) Ледниковый период: Столкновение неизбежно / Ice Age: Collision Course (2016) BDRip 720p | Лицензия BOSS 5.59 GB
Зарубежные мультфильмы Ледниковый период: Столкновение неизбежно / Ice Age: Collision Course (2016) BDRip | Лицензия BOSS 1.46 GB
Зарубежные мультфильмы Ледниковый период: Столкновение неизбежно / Ice Age: Collision Course (2016) BDRip от HELLYWOOD Russian Mafia 2.05 GB
Зарубежные Мультфильмы (DVD) Ледниковый период: Столкновение неизбежно / Ice Age: Collision Course (2016) DVD9 | Custom BOSS 6.64 GB
Трейлеры Ледниковый период: Столкновение неизбежно / Ice Age: Collision Course (2016) HDRip-1080p | Трэйлер Russian Mafia 138 MB
Фильмы (HD DVD, Blu-ray и BDRemux) Столкновение / Crash (2004) BDRip 720p by msltel | D, P2, A | Режиссёрская версия Белочка 6.17 GB
Показать сообщения:    

Текущее время: Сегодня 16:04

Часовой пояс: GMT



Вы не можете начинать темы
Вы не можете отвечать на сообщения
Вы не можете редактировать свои сообщения
Вы не можете удалять свои сообщения
Вы не можете голосовать в опросах
Вы не можете прикреплять файлы к сообщениям
Вы не можете скачивать файлы