Столица мертвецов / A Capital dos Mortos (Тьяго Белотти / Tiago Belotti) [2008, Бразилия, Ужасы, DVDRip] VO (Васька Куролесов)

 
Автор Сообщение

TorrentFilm ®

Пол:

Стаж: 2 года

Сообщений: 7741



Награды: Нет

Торрент-статистика

Создавать темы 26-Дек-2014 02:00

[Цитировать]

Столица мертвецов / A Capital dos Mortos
Страна: Бразилия
Жанр: Ужасы
Год выпуска: 2008
Продолжительность: 01:24:45
Перевод: Одноголосый закадровый Васька Куролесов по субтитрам Ворон
Cубтитры: нет
Оригинальная аудиодорожка: нет
Режиссер: Тьяго Белотти / Tiago Belotti
В ролях: Пабло Пейшоту, Лаура Морейра, Жан Карло, Луиза Виотти, Жозе Можика Маринш и др
Описание: Согласно древнему предсказанию, город Бразилиа станет не только столицей нового мира, но и столицей мертвецов, ибо сказано в предсказании: "И настанет день, когда кладбища станут городами, а города кладбищами, и мертвые пойдут по земле, когда в аду им станет тесно"...

Сэмпл: http://multi-up.com/1019972
Качество видео: DVDRip
Формат видео: AVI
Видео: 640x352 (1.82:1), 29.970 fps, XviD build 65~1348 kbps avg, 0.20 bit/pixel
Аудио: 48 kHz, MPEG Layer 3, 2ch, 128.00 kbps avg
Релиз:

MediaInfo

G:\A Capital.dos.Mortos_KypoJIecoB.avi
General
Complete name : G:\A Capital.dos.Mortos_KypoJIecoB.avi
Format : AVI
Format/Info : Audio Video Interleave
File size : 902 MiB
Duration : 1h 24mn
Overall bit rate : 1 487 Kbps
Video #0
ID : 0
Format : MPEG-4 Visual
Format profile : Advanced Simple@L5
Format settings, BVOP : 2
Format settings, QPel : No
Format settings, GMC : No warppoints
Format settings, Matrix : Default (H.263)
Codec ID : XVID
Codec ID/Hint : XviD
Duration : 1h 24mn
Bit rate : 1 348 Kbps
Width : 640 pixels
Height : 352 pixels
Display aspect ratio : 16:9
Frame rate : 29.970 fps
Color space : YUV
Chroma subsampling : 4:2:0
Bit depth : 8 bits
Scan type : Progressive
Compression mode : Lossy
Bits/(Pixel*Frame) : 0.200
Stream size : 817 MiB (91%)
Writing library : XviD 65
Audio #1
ID : 1
Format : MPEG Audio
Format version : Version 1
Format profile : Layer 3
Mode : Joint stereo
Codec ID : 55
Codec ID/Hint : MP3
Duration : 1h 24mn
Bit rate mode : Constant
Bit rate : 128 Kbps
Channel(s) : 2 channels
Sampling rate : 48.0 KHz
Compression mode : Lossy
Stream size : 77.6 MiB (9%)
Alignment : Aligned on interleaves
Interleave, duration : 33 ms (1.00 video frame)
Interleave, preload duration : 504 ms

Скриншот c названием фильма

Скриншоты

[Профиль] [ЛС]

Создавать темы 06-Авг-2015 22:53 (спустя 7 месяцев 11 дней)

Топик был перенесен из форума Фильмы до 2014 года в форум Фильмы до 2012 года
sergej644
 

Создавать темы 12-Июн-2016 08:51 (спустя 1 год 5 месяцев)

Топик был перенесен из форума Фильмы 2011 года в форум Фильмы 2006-2008 года
Russian Mafia
 
Показать сообщения:    

Текущее время: Сегодня 06:04

Часовой пояс: GMT



Вы не можете начинать темы
Вы не можете отвечать на сообщения
Вы не можете редактировать свои сообщения
Вы не можете удалять свои сообщения
Вы не можете голосовать в опросах
Вы не можете прикреплять файлы к сообщениям
Вы не можете скачивать файлы