Столик-сам-накройся, золотой осёл и дубинка из мешка / Tischlein deck dich (Ульрих Кениг / Ulrich König) [2008, Германия, мелодрама, семейный, DVB] MVO

 
Автор Сообщение

TorrentFilm ®

Пол:

Стаж: 2 года

Сообщений: 7741



Награды: Нет

Торрент-статистика

Создавать темы 01-Янв-2015 00:01

[Цитировать]

Столик-сам-накройся, золотой осёл и дубинка из мешка / Tischlein deck dich
Страна: Германия
Жанр: мелодрама, семейный
Год выпуска: 2008
Продолжительность: 00:58:29
Перевод: Профессиональный (многоголосый закадровый)
Cубтитры: нет
Режиссер: Ульрих Кениг / Ulrich König
В ролях: Ремо Шульц, Линн Ройссе, Кристина Нойбауэр, Михаэль Бранднер, Дитмар Бар, Инго Науйокс, Винфрид Глатцедер, Урсула Каруссайт, Гельмут Цирль, Карин Талер
Описание: Много лет тому назад жил да был портной.
Было у него три сына и всего-навсего одна коза. Но эта коза прокармливала их всех своим молоком, а потому и кормить ее надо было хорошо и ежедневно гонять на пастбище. Гонять ее сыновьям приходилось по очереди. И вот однажды…
Сэмпл: http://rusfolder.com/42624530

Качество видео: DVB
Формат видео: TS
Видео: AVC/H.264, 720x576(4:3), 25 fps, 2674 kbps
Аудио: Mp-2, 48 kHz, 192.00 kbps, 2 ch

MediaInfo

Общее
Идентификатор : 1 (0x1)
Полное имя : D:\Столик-сам-накройся, золотой осёл и дубинка из мешка.ts
Формат : MPEG-TS
Размер файла : 1,23 Гбайт
Продолжительность : 58 м.
Режим общего битрейта : Переменный
Общий поток : 3017 Кбит/сек
Видео
Идентификатор : 1081 (0x439)
Идентификатор меню : 1 (0x1)
Формат : AVC
Формат/Информация : Advanced Video Codec
Профиль формата : Main@L3.0
Параметр CABAC формата : Да
Параметр ReFrames формата : 3 кадра
Параметр GOP формата : M=4, N=28
Идентификатор кодека : 27
Продолжительность : 58 м.
Битрейт : 2674 Кбит/сек
Ширина : 720 пикселей
Высота : 576 пикселей
Соотношение сторон : 4:3
Частота кадров : 25,000 кадров/сек
Стандарт вещания : Component
Цветовое пространство : YUV
Субдискретизация насыщенности : 4:2:0
Битовая глубина : 8 бит
Тип развёртки : Чересстрочная
Порядок развёртки : Верхнее поле первое
Бит/(Пиксели*Кадры) : 0.258
Размер потока : 1,09 Гбайт (89%)
Основные цвета : BT.601 PAL
Характеристики трансфера : BT.470 System B, BT.470 System G
Коэффициенты матрицы : BT.601
Аудио
Идентификатор : 1082 (0x43A)
Идентификатор меню : 1 (0x1)
Формат : MPEG Audio
Версия формата : Version 1
Профиль формата : Layer 2
Идентификатор кодека : 3
Продолжительность : 58 м.
Вид битрейта : Постоянный
Битрейт : 192 Кбит/сек
Каналы : 2 канала
Частота : 48,0 КГц
Метод сжатия : С потерями
Размер потока : 80,3 Мбайт (6%)

Скриншот c названием фильма

Скриншоты

[Профиль] [ЛС]

Создавать темы 06-Авг-2015 22:50 (спустя 7 месяцев 5 дней)

Топик был перенесен из форума Фильмы до 2014 года в форум Фильмы до 2012 года
sergej644
 

Создавать темы 12-Июн-2016 08:51 (спустя 1 год 5 месяцев)

Топик был перенесен из форума Фильмы 2011 года в форум Фильмы 2006-2008 года
Russian Mafia
 
Показать сообщения:    

Текущее время: Сегодня 06:29

Часовой пояс: GMT



Вы не можете начинать темы
Вы не можете отвечать на сообщения
Вы не можете редактировать свои сообщения
Вы не можете удалять свои сообщения
Вы не можете голосовать в опросах
Вы не можете прикреплять файлы к сообщениям
Вы не можете скачивать файлы