Столик на троих / Table for Three (Майкл Самонек / Michael Samonek) [2009, США, комедия, мелодрама, HDTVRip] MVO

 
Автор Сообщение

TorrentFilm ®

Пол:

Стаж: 2 года

Сообщений: 7741



Награды: Нет

Торрент-статистика

Создавать темы 21-Фев-2015 00:01

[Цитировать]

Столик на троих / Table for Three
Страна: США
Жанр: комедия, мелодрама
Год выпуска: 2009
Продолжительность: 01:27:20
Перевод: Профессиональный (многоголосый закадровый)
Cубтитры: нет
Режиссер: Майкл Самонек / Michael Samonek
В ролях: Дженнифер Моррисон, София Буш, Брэндон Рут, Джонни Галецки, Лиза Лапира, Джесси Брэдфорд, Нил Джексон, Кейт Альбрехт, Роберт Тауэрс, Тоши Тода...
Описание: Молодой парень Скотт, привыкающий к роли холостяка, приглашает "идеальную пару" Райана и Мэри разделить с ним его огромную квартиру. Как оказалось, Скотт поступил весьма опрометчиво, поскольку парочка тут же начинает вмешиваться в его жизнь и новые романтические отношения.
Сэмпл: https://yadi.sk/i/EK8Lzs1hehamq
Доп. информация: За предоставленный рип благодарим Ledy_X
"Спасибы" просьба ПИСАТЬ в теме, тем самым вы продлеваете жизнь раздаче.
Релиз
Качество видео: HDTVRip [Исходник 1080i]
Формат видео: AVI
Видео: 720x400 (1.80:1), 25 fps, XviD build 50 ~2005 kbps avg, 0.28 bit/pixel
Аудио: 48 kHz, AC3 Dolby Digital, 3/2 (L,C,R,l,r) + LFE ch, ~384 kbps

MediaInfo

Столик на троих - Table for Three [Rip by Ledy_X].avi
Format : AVI
Format/Info : Audio Video Interleave
File size : 1.46 GiB
Duration : 1h 27mn
Overall bit rate : 2 400 Kbps
Movie name : Столик на троих - Table for Three [Rip by Ledy_X]
Director : Rip by Ledy_X
Writing application : VirtualDubMod 1.5.10.3 | www.virtualdub-fr.org || (build 2550/release)
Copyright : Edich2
Comment : RuTracker.org
Video
ID : 0
Format : MPEG-4 Visual
Format profile : Advanced Simple@L5
Format settings, BVOP : 1
Format settings, QPel : No
Format settings, GMC : No warppoints
Format settings, Matrix : Default (MPEG)
Codec ID : XVID
Codec ID/Hint : XviD
Duration : 1h 27mn
Bit rate : 2 006 Kbps
Width : 720 pixels
Height : 400 pixels
Display aspect ratio : 16:9
Frame rate : 25.000 fps
Color space : YUV
Chroma subsampling : 4:2:0
Bit depth : 8 bits
Scan type : Progressive
Compression mode : Lossy
Bits/(Pixel*Frame) : 0.279
Stream size : 1.22 GiB (84%)
Writing library : XviD 1.2.1 (UTC 2008-12-04)
Audio
ID : 1
Format : AC-3
Format/Info : Audio Coding 3
Mode extension : CM (complete main)
Format settings, Endianness : Big
Codec ID : 2000
Duration : 1h 27mn
Bit rate mode : Constant
Bit rate : 384 Kbps
Channel(s) : 6 channels
Channel positions : Front: L C R, Side: L R, LFE
Sampling rate : 48.0 KHz
Bit depth : 16 bits
Compression mode : Lossy
Stream size : 240 MiB (16%)
Alignment : Split accross interleaves
Interleave, duration : 40 ms (1.00 video frame)
Interleave, preload duration : 500 ms

Скриншоты


[Профиль] [ЛС]

Создавать темы 06-Авг-2015 22:42 (спустя 5 месяцев 13 дней)

Топик был перенесен из форума Фильмы до 2014 года в форум Фильмы до 2012 года
sergej644
 

Создавать темы 12-Июн-2016 08:49 (спустя 1 год 3 месяца)

Топик был перенесен из форума Фильмы 2011 года в форум Фильмы 2009 года
Russian Mafia
 
Показать сообщения:    

Текущее время: Сегодня 08:12

Часовой пояс: GMT



Вы не можете начинать темы
Вы не можете отвечать на сообщения
Вы не можете редактировать свои сообщения
Вы не можете удалять свои сообщения
Вы не можете голосовать в опросах
Вы не можете прикреплять файлы к сообщениям
Вы не можете скачивать файлы