Столетний старик, который вылез в окно и исчез /The Centenarian Who Climbed Out the Window and Vanished (2013) BDRip 1080p от CINEMANIA | L1

 
Автор Сообщение

sergej644 ®

Пол:

Стаж: 4 года 11 месяцев

Сообщений: 6045

Откуда: Soviet Union



Награды: Нет

Торрент-статистика

Создавать темы 15-Дек-2014 23:07

[Цитировать]

--Столетний старик, который вылез в окно и исчез /The Centenarian Who Climbed Out the Window and Vanished (2013) BDRip 1080p
Информация о фильме
Название: Столетний старик, который вылез в окно и исчез
Оригинальное название: The Centenarian Who Climbed Out the Window and Vanished
Год выхода: 2013
Жанр: драма, комедия, приключения
Режиссер: Феликс Хернгрен
В ролях: Роберт Густафссон, Ивар Викландер, Давид Виберг, Миа Шерингер, Йенс Хультен, Бианка Крузейро, Алан Форд, Свен Лённ, Дэвид Шеклтон, Георг Николофф
О фильме:
В день своего столетнего юбилея, главный герой этой приключенческой комедии покидает через окно дом престарелых, где он провёл уже немало лет. Он не хочет влачить здесь бесцельное существование, ведь вся его жизнь была полна увлекательных приключений. Судьба сводила его со множеством людей оказавших сильно влияние на судьбы целых народов в 20-м веке – Труменом, Сталиным, Франко. Да и сам он, надо сказать, очень сильно повлиял на ход истории, хотя, конечно, и не осознал этого.

Выпущено: Швеция
Продолжительность: 01:54:17
Озвучивание: Любительское (одноголосое) [С.Бросалин]
Файл
Формат: MKV
Качество: BDRip 1080p [GNiSTOR]
Видео: 8448 kb/s, 1920х800
Аудио: Russian: AC3, 448 kb/s (2 ch) / Swedish: DTS, 1510 kb/s (6 ch)
Субтитры: Russian [Ольга Никитина], English
Дополнительно: Сохранены оригинальные чаптеры как на Blu-Ray
Размер: 8.30 Gb
Скачать: Сэмпл
Релиз группы:

Скриншоты

NFO

Общее
The.Centenarian.Who.Climbed.Out.the.Window.and.Vanished.2013.Blu.Ray.1080p.CINEMANIA.mkv
Формат : Matroska
Версия формата : Version 4 / Version 2
Размер файла : 8,30 Гбайт
Продолжительность : 1 ч. 54 м.
Общий поток : 10,4 Мбит/сек
Название фильма : Release Group CINEMANIA
Дата кодирования : UTC 2014-05-27 10:04:47
Программа кодирования : mkvmerge v6.9.1 ('Blue Panther') 64bit built on Apr 18 2014 18:23:38
Библиотека кодирования : libebml v1.3.0 + libmatroska v1.4.1
Видео
Идентификатор : 1
Формат : AVC
Формат/Информация : Advanced Video Codec
Профиль формата : High@L4.1
Параметр CABAC формата : Да
Параметр ReFrames формата : 5 кадров
Идентификатор кодека : V_MPEG4/ISO/AVC
Продолжительность : 1 ч. 54 м.
Битрейт : 8448 Кбит/сек
Ширина : 1920 пикселей
Высота : 800 пикселей
Соотношение сторон : 2,40:1
Режим частоты кадров : Постоянный
Частота кадров : 24,000 кадра/сек
Цветовое пространство : YUV
Субдискретизация насыщенности : 4:2:0
Битовая глубина : 8 бит
Тип развёртки : Прогрессивная
Бит/(Пиксели*Кадры) : 0.229
Размер потока : 6,58 Гбайт (79%)
Заголовок : Release Group CINEMANIA
Библиотека кодирования : x264 core 142 r2409 d6b4e63
Настройки программы : cabac=1 / ref=5 / deblock=1:0:0 / analyse=0x3:0x133 / me=umh / subme=8 / psy=1 / psy_rd=1.00:0.00 / mixed_ref=1 / me_range=16 / chroma_me=1 / trellis=1 / 8x8dct=1 / cqm=0 / deadzone=21,11 / fast_pskip=0 / chroma_qp_offset=-2 / threads=12 / lookahead_threads=2 / sliced_threads=0 / nr=0 / decimate=1 / interlaced=0 / bluray_compat=0 / constrained_intra=0 / bframes=3 / b_pyramid=2 / b_adapt=2 / b_bias=0 / direct=3 / weightb=1 / open_gop=0 / weightp=2 / keyint=250 / keyint_min=24 / scenecut=40 / intra_refresh=0 / rc_lookahead=50 / rc=2pass / mbtree=1 / bitrate=8448 / ratetol=1.0 / qcomp=0.60 / qpmin=0 / qpmax=69 / qpstep=4 / cplxblur=20.0 / qblur=0.5 / ip_ratio=1.40 / aq=1:1.00
Язык : English
Default : Да
Forced : Нет
Аудио #1
Идентификатор : 2
Формат : AC-3
Формат/Информация : Audio Coding 3
Расширение режима : CM (complete main)
Параметр Endianness формата : Big
Идентификатор кодека : A_AC3
Продолжительность : 1 ч. 54 м.
Вид битрейта : Постоянный
Битрейт : 448 Кбит/сек
Каналы : 2 канала
Расположение каналов : Front: L R
Частота : 48,0 КГц
Битовая глубина : 16 бит
Метод сжатия : С потерями
Размер потока : 366 Мбайт (4%)
Заголовок : С. Бросалин
Язык : Russian
Default : Да
Forced : Да
Аудио #2
Идентификатор : 3
Формат : DTS
Формат/Информация : Digital Theater Systems
Режим : 16
Параметр Endianness формата : Big
Идентификатор кодека : A_DTS
Продолжительность : 1 ч. 54 м.
Вид битрейта : Постоянный
Битрейт : 1509 Кбит/сек
Каналы : 6 каналов
Расположение каналов : Front: L C R, Side: L R, LFE
Частота : 48,0 КГц
Битовая глубина : 24 бит
Метод сжатия : С потерями
Размер потока : 1,20 Гбайт (15%)
Язык : Swedish
Default : Нет
Forced : Нет
Текст #1
Идентификатор : 4
Формат : UTF-8
Идентификатор кодека : S_TEXT/UTF8
Идентификатор кодека/Информация : UTF-8 Plain Text
Заголовок : Ольга Никитина
Язык : Russian
Default : Нет
Forced : Нет
Текст #2
Идентификатор : 5
Формат : UTF-8
Идентификатор кодека : S_TEXT/UTF8
Идентификатор кодека/Информация : UTF-8 Plain Text
Язык : English
Default : Нет
Forced : Нет
Меню
00:00:00.000 : en:00:00:00.000
00:15:04.917 : en:00:15:04.917
00:30:15.750 : en:00:30:15.750
00:44:48.583 : en:00:44:48.583
00:58:23.083 : en:00:58:23.083
01:14:06.292 : en:01:14:06.292
01:31:16.583 : en:01:31:16.583
01:48:33.750 : en:01:48:33.750
--
[Профиль] [ЛС]
Кто просматривает тему:

Форум Тема Автор Размер
Viasat History Viasat History: Охота на ведьм: столетие убийств / Witch Hunt A Century of Murder [серии 1-2 из 2] (Chris Holt) [2015 г., Документально-постановчный, история, SATRip] skorpionN 1.25 GB
XXXI Летние Олимпийские игры. Рио-де-Жанейро 2016 (Бразилия) XXXI Летние Олимпийские Игры. Рио-де-Жанейро (Бразилия). Стрельба. Мужчины. Пневматический пистолет. 10 м. Финал [06.08] (2016) IPTV 1080i BOSS 1007 MB
XXXI Летние Олимпийские игры. Рио-де-Жанейро 2016 (Бразилия) XXXI Летние Олимпийские Игры. Рио-де-Жанейро (Бразилия). Стрельба. Мужчины. Скоростной пистолет. 25м. Финал [13.08] (2016) IPTV 1080i Russian Mafia 1.44 GB
Разная литература Американские револьверы и пистолеты [Доминик Веннер] Garik014 70 MB
R.G.TorrentFilm Video Буря столетия / Storm of the Century (Крэйг Р. Бэксли) [1999 г., ужасы, фэнтези, триллер, драма, DVDRip-AVC] [AVO (Живов)] Bathory 2.86 GB
Отечественные cериалы Двое с пистолетами [01-16 из 16] (Алексей Гусев)[2014, Иронический детектив, SATRip] sergej644 9.65 GB
Фильмы (HD Rips | 720p, 1080p) Джеймс Бонд. Агент 007: Человек с золотым пистолетом / James Bond: The Man with the Golden Gun (1974) BDRip 1080p sergej644 7.76 GB
Фильмы (HD DVD, Blu-ray и BDRemux) Женщина-пистолет / Gun Woman (2014) BDRemux 1080p от NovaLan sergej644 16.22 GB
Показать сообщения:    

Текущее время: Сегодня 09:58

Часовой пояс: GMT



Вы не можете начинать темы
Вы не можете отвечать на сообщения
Вы не можете редактировать свои сообщения
Вы не можете удалять свои сообщения
Вы не можете голосовать в опросах
Вы не можете прикреплять файлы к сообщениям
Вы не можете скачивать файлы