Стойкий оловянный солдатик (Лев Мильчин) [1976 г., мультфильм, сказка, семейный, DVDRip-AVC] КП, реставрация

 
Автор Сообщение

TorrentFilm ®

Пол:

Стаж: 2 года

Сообщений: 7741



Награды: Нет

Торрент-статистика

Создавать темы 04-Янв-2016 00:02

[Цитировать]

Стойкий оловянный солдатик- Год выпуска: 1976
Страна: СССР
Жанр: мультфильм, сказка, семейный
Продолжительность: 00:17:00
Русские субтитры: нет
Режиссер: Лев Мильчин
Роли озвучили: Сергей Цейц, Мария Виноградова, Алексей Консовский
Описание: Из старой оловянной ложки отлили 25 оловянных солдатиков, похожих друг на друга, как две капли воды. Но на последнего олова не хватило, и он получился одноногим...
Релиз:
Качество: DVDRip-AVC
Формат: MKV
Видео: 720x554 (1.386) @ 768x554, 25.000 fps, AVC, ~2061 Kbps, 0.207 bits/pixel
Аудио: Russian, 48.0 KHz, AC3, 6 ch, 448 Kbps

Скриншоты

Тех.данные

General
Unique ID : 237335738947612341310679124604283217054 (0xB28D335DE15371BD86F8FCEE96BF649E)
Complete name : D:\Tor_MY\Стойкий оловянный солдатик.mkv
Format : Matroska
Format version : Version 4 / Version 2
File size : 311 MiB
Duration : 17mn 0s
Overall bit rate : 2 560 Kbps
Movie name : Soldatik.mkv by Nyc-2008
Encoded date : UTC 2014-02-07 09:30:31
Writing application : mkvmerge v6.7.0 ('Back to the Ground') 32bit built on Jan 8 2014 15:03:17
Writing library : libebml v1.3.0 + libmatroska v1.4.1
Video
ID : 1
Format : AVC
Format/Info : Advanced Video Codec
Format profile : High@L4.0
Format settings, CABAC : Yes
Format settings, ReFrames : 16 frames
Codec ID : V_MPEG4/ISO/AVC
Duration : 17mn 0s
Bit rate : 2 061 Kbps
Width : 720 pixels
Height : 554 pixels
Display aspect ratio : 1.386
Frame rate mode : Constant
Frame rate : 25.000 fps
Color space : YUV
Chroma subsampling : 4:2:0
Bit depth : 8 bits
Scan type : Progressive
Bits/(Pixel*Frame) : 0.207
Stream size : 251 MiB (81%)
Writing library : x264 core 142 r2389kMod 956c8d8
Encoding settings : cabac=1 / ref=16 / deblock=1:-1:-1 / analyse=0x3:0x113 / me=umh / subme=10 / psy=1 / fade_compensate=0.00 / psy_rd=1.00:0.00 / mixed_ref=1 / me_range=24 / chroma_me=1 / trellis=2 / 8x8dct=1 / cqm=0 / deadzone=21,11 / fast_pskip=0 / chroma_qp_offset=-2 / threads=6 / lookahead_threads=1 / sliced_threads=0 / nr=0 / decimate=1 / interlaced=0 / bluray_compat=0 / constrained_intra=0 / fgo=0 / bframes=16 / b_pyramid=2 / b_adapt=2 / b_bias=0 / direct=1 / weightb=1 / open_gop=0 / weightp=2 / keyint=250 / keyint_min=25 / scenecut=40 / intra_refresh=0 / rc=crf / mbtree=0 / crf=18.0000 / qcomp=0.60 / qpmin=0 / qpmax=69 / qpstep=4 / ip_ratio=1.40 / pb_ratio=1.30 / aq=1:1.00
Default : Yes
Forced : No
Audio
ID : 2
Format : AC-3
Format/Info : Audio Coding 3
Mode extension : CM (complete main)
Format settings, Endianness : Big
Codec ID : A_AC3
Duration : 17mn 0s
Bit rate mode : Constant
Bit rate : 448 Kbps
Channel(s) : 6 channels
Channel positions : Front: L C R, Side: L R, LFE
Sampling rate : 48.0 KHz
Bit depth : 16 bits
Compression mode : Lossy
Delay relative to video : 470ms
Stream size : 54.5 MiB (17%)
Language : Russian
Default : Yes
Forced : No
[Профиль] [ЛС]
Показать сообщения:    

Текущее время: Сегодня 18:59

Часовой пояс: GMT



Вы не можете начинать темы
Вы не можете отвечать на сообщения
Вы не можете редактировать свои сообщения
Вы не можете удалять свои сообщения
Вы не можете голосовать в опросах
Вы не можете прикреплять файлы к сообщениям
Вы не можете скачивать файлы