Стиляги (Валерий Тодоровский / Valeri Todorovsky) [2008, Россия, комедия, драма, мюзикл, Blu-ray]

 
Автор Сообщение

painkiller ®

Стаж: 2 года 3 месяца

Сообщений: 582



Награды: Нет

Торрент-статистика

Создавать темы 15-Авг-2014 01:09

[Цитировать]

-Стиляги- Год выпуска: 2008
Жанр: комедия, драма, мюзикл
Продолжительность: 02:16:24
Страна: Россия
субтитры: нет-Режиссер: Валерий Тодоровский / Valeri Todorovsky
В ролях: Оксана Акиньшина, Антон Шагин, Сергей Гармаш, Алексей Горбунов, Евгения Хиривская, София Лебедева, Максим Матвеев, Мария Мина, Олег Пангсепп, Максим Пешков, Ирина Розанова, Михаил Сиворин, Александра Стрельчина, Евгения Суворкина, Екатерина Вилкова, Эльвира Волошина, Игорь Войнаровский, Олег Янковский, Леонид Ярмольник, Алеся Пуховая, Сергей Ларин, Александр Стефанцов, Людмила Соловьева
Описание:
Люди в строгих костюмах с одинаковыми лицами стройно маршируют к светлому будущему. Шаг влево, шаг вправо – запрещены. Эй, народ! Жизнь слишком хороша, чтобы провести ее в унылом однообразии! Пусть у каждого будет свой стиль!
Стиляги – люди, которые даже в мире, полном суровых запретов и единых правил, не боятся быть свободными! Те, кто хочет по-своему одеваться, танцевать, разговаривать и любить! Кто знает толк в настоящей музыке, умеет смеяться, наслаждается жизнью на полную катушку! Для кого каждый новый день – это весёлый праздник!
Мэлс – примерный комсомолец, всегда готовый шагать в ногу, осуждать и усмирять несогласных. Он живет как все и думает, что счастлив. Пока однажды не сталкивается с миром стиляг – непонятным, опасным и манящим. Здесь носят одежду сногсшибательных расцветок. Танцуют под неположенную музыку. В этом мире самые красивые девушки! И среди них – королева тусовки: ослепительная, недоступная, дерзкая Полли-Польза. Та самая, ради которой Мэлс решится стать другим. Будет разгружать по ночам вагоны, чтобы купить цветастые брюки-дудочки. Научится танцевать буги и играть на саксофоне. И вот стиляга Мэл – шикарный парень, музыкант и танцор – вместе с новыми друзьями хиляет по Броду и играет джаз. Удастся ли теперь завоевать любовь Пользы? И не пожалеет ли Мэл когда-нибудь о своем выборе?

-Качество: Blu-ray
Формат: BDMV
Аудио кодек: DTS
Видео: 1920x1080(2.35:1), / 1080p / 23.98 fps, MPEG-4 AVC, 23.348 Mbps
Аудио: Русский (DTS-HD Lossless Master Audio 7.1) ~2046 kbps, Русский (Dolby Digital 5.1) ~768 kbps
Субтитры: нет
главное меню: есть

BDinfo

Disc Title:
Disc Size: 46 988 561 006 bytes
Protection: AACS
BD-Java: No
BDInfo: 0.5.3
Notes:
BDINFO HOME:
Cinema Squid
http://www.cinemasquid.com/blu-ray/tools/bdinfo
INCLUDES FORUMS REPORT FOR:
AVS Forum Blu-ray Audio and Video Specifications Thread
http://www.avsforum.com/avs-vb/showthread.php?t=1155731
********************
PLAYLIST: 00005.MPLS
********************
Total   Video
Title                                                           Codec   Length  Movie Size      Disc Size       Bitrate Bitrate Main Audio Track                          Secondary Audio Track
-----                                                           ------  ------- --------------  --------------  ------- ------- ------------------                        ---------------------
00005.MPLS                                                      AVC     2:16:24 38 242 879 488  46 988 561 006  37,38   23,78   DTS-HD Hi-Res 7.1 2046Kbps (48kHz/16-bit) LPCM 5.1 4608Kbps (48kHz/16-bit)
DISC INFO:
Disc Title:
Disc Size:      46 988 561 006 bytes
Protection:     AACS
BD-Java:        No
BDInfo:         0.5.3
PLAYLIST REPORT:
Name:                   00005.MPLS
Length:                 2:16:24 (h:m:s)
Size:                   38 242 879 488 bytes
Total Bitrate:          37,38 Mbps
VIDEO:
Codec                   Bitrate             Description
-----                   -------             -----------
MPEG-4 AVC Video        23779 kbps          1080p / 23,976 fps / 16:9 / High Profile 4.1
AUDIO:
Codec                           Language        Bitrate         Description
-----                           --------        -------         -----------
DTS-HD High-Res Audio           Russian         2046 kbps       7.1 / 48 kHz / 2046 kbps / 16-bit (DTS Core: 5.1 / 48 kHz / 1509 kbps / 16-bit)
LPCM Audio                      Russian         4608 kbps       5.1 / 48 kHz / 4608 kbps / 16-bit
Dolby TrueHD Audio              Russian         3647 kbps       5.1 / 48 kHz / 3647 kbps / 24-bit (AC3 Embedded: 5.1 / 48 kHz / 320 kbps / DN -4dB)
FILES:
Name            Time In         Length          Size            Total Bitrate
----            -------         ------          ----            -------------
00005.M2TS      0:00:00.000     2:16:24.426     38 242 879 488  37 381
CHAPTERS:
Number          Time In         Length          Avg Video Rate  Max 1-Sec Rate  Max 1-Sec Time  Max 5-Sec Rate  Max 5-Sec Time  Max 10Sec Rate  Max 10Sec Time  Avg Frame Size  Max Frame Size  Max Frame Time
------          -------         ------          --------------  --------------  --------------  --------------  --------------  --------------  --------------  --------------  --------------  --------------
1               0:00:00.000     0:14:09.640     24 099 kbps     50 424 kbps     00:08:54.116    39 022 kbps     00:11:39.824    35 341 kbps     00:11:39.824    125 635 bytes   603 728 bytes   00:08:54.909
2               0:14:09.640     0:02:41.828     25 223 kbps     39 961 kbps     00:15:37.394    33 811 kbps     00:15:42.191    32 849 kbps     00:15:37.394    131 503 bytes   384 205 bytes   00:16:51.468
3               0:16:51.468     0:05:51.309     26 075 kbps     40 370 kbps     00:17:41.727    35 991 kbps     00:21:48.390    34 479 kbps     00:22:10.287    135 943 bytes   446 464 bytes   00:22:14.875
4               0:22:42.778     0:19:17.865     25 138 kbps     42 518 kbps     00:23:27.489    37 187 kbps     00:28:57.068    34 859 kbps     00:28:50.520    131 059 bytes   451 292 bytes   00:25:28.276
5               0:42:00.643     0:20:03.785     21 933 kbps     42 994 kbps     01:01:24.389    34 789 kbps     01:01:20.301    33 461 kbps     01:01:15.380    114 348 bytes   535 607 bytes   00:46:30.954
6               1:02:04.429     0:11:59.009     26 038 kbps     45 327 kbps     01:08:22.807    38 679 kbps     01:08:18.886    36 792 kbps     01:08:17.468    135 749 bytes   526 301 bytes   01:09:41.468
7               1:14:03.439     0:06:29.764     23 138 kbps     36 411 kbps     01:19:38.064    33 628 kbps     01:19:14.875    31 528 kbps     01:19:29.681    120 630 bytes   427 067 bytes   01:14:59.870
8               1:20:33.203     0:08:22.251     25 423 kbps     40 866 kbps     01:20:41.419    35 436 kbps     01:20:38.750    34 288 kbps     01:20:34.454    132 544 bytes   438 613 bytes   01:27:01.883
9               1:28:55.455     0:05:31.122     27 092 kbps     37 344 kbps     01:33:05.288    34 135 kbps     01:29:20.229    32 203 kbps     01:31:54.175    141 245 bytes   493 256 bytes   01:29:21.356
10              1:34:26.577     0:12:46.849     22 858 kbps     45 657 kbps     01:41:30.667    38 804 kbps     01:41:27.414    36 655 kbps     01:41:23.160    119 170 bytes   851 782 bytes   01:42:42.573
11              1:47:13.427     0:13:14.502     22 418 kbps     40 742 kbps     01:47:48.503    36 154 kbps     01:47:15.345    35 017 kbps     01:47:41.788    116 878 bytes   510 672 bytes   01:47:17.180
12              2:00:27.929     0:15:56.497     21 511 kbps     41 284 kbps     02:08:50.889    37 625 kbps     02:08:48.804    37 576 kbps     02:08:48.804    112 152 bytes   464 697 bytes   02:05:23.474
STREAM DIAGNOSTICS:
File            PID             Type            Codec           Language                Seconds                 Bitrate                 Bytes           Packets
----            ---             ----            -----           --------                --------------          --------------          -------------   -----
00005.M2TS      4113 (0x1011)   0x1B            AVC                                     8184,301                23 780                  24 327 584 557  132 329 929
00005.M2TS      4352 (0x1100)   0x85            DTS-HD HR       rus (Russian)           8184,301                2 046                   2 093 167 120   12 276 640
00005.M2TS      4353 (0x1101)   0x80            LPCM            rus (Russian)           8184,301                4 614                   4 720 776 340   26 190 160
00005.M2TS      4354 (0x1102)   0x83            TrueHD          rus (Russian)           8184,301                3 967                   4 058 081 068   28 110 720
QUICK SUMMARY:
Disc Title:
Disc Size: 46 988 561 006 bytes
Protection: AACS
BD-Java: No
Playlist: 00005.MPLS
Size: 38 242 879 488 bytes
Length: 2:16:24
Total Bitrate: 37,38 Mbps
Video: MPEG-4 AVC Video / 23779 kbps / 1080p / 23,976 fps / 16:9 / High Profile 4.1
Audio: Russian / DTS-HD High-Res Audio / 7.1 / 48 kHz / 2046 kbps / 16-bit (DTS Core: 5.1 / 48 kHz / 1509 kbps / 16-bit)
Audio: Russian / LPCM Audio / 5.1 / 48 kHz / 4608 kbps / 16-bit
Audio: Russian / Dolby TrueHD Audio / 5.1 / 48 kHz / 3647 kbps / 24-bit (AC3 Embedded: 5.1 / 48 kHz / 320 kbps / DN -4dB)
********************
PLAYLIST: 00006.MPLS
********************
Total   Video
Title                                                           Codec   Length  Movie Size      Disc Size       Bitrate Bitrate Main Audio Track                          Secondary Audio Track
-----                                                           ------  ------- --------------  --------------  ------- ------- ------------------                        ---------------------
00006.MPLS                                                      AVC     0:37:37 3 756 834 816   46 988 561 006  13,31   12,00   DD AC3 2.0 192Kbps
DISC INFO:
Disc Title:
Disc Size:      46 988 561 006 bytes
Protection:     AACS
BD-Java:        No
BDInfo:         0.5.3
PLAYLIST REPORT:
Name:                   00006.MPLS
Length:                 0:37:37 (h:m:s)
Size:                   3 756 834 816 bytes
Total Bitrate:          13,31 Mbps
VIDEO:
Codec                   Bitrate             Description
-----                   -------             -----------
MPEG-4 AVC Video        11999 kbps          576i / 25 fps / 4:3 / High Profile 4.1
AUDIO:
Codec                           Language        Bitrate         Description
-----                           --------        -------         -----------
Dolby Digital Audio             Russian         192 kbps        2.0 / 48 kHz / 192 kbps / DN -4dB
Dolby Digital Audio             Russian         192 kbps        2.0 / 48 kHz / 192 kbps / DN -4dB
Dolby Digital Audio             Russian         192 kbps        2.0 / 48 kHz / 192 kbps / DN -4dB
FILES:
Name            Time In         Length          Size            Total Bitrate
----            -------         ------          ----            -------------
00007.M2TS      0:00:00.000     0:37:37.239     3 756 834 816   13 315
CHAPTERS:
Number          Time In         Length          Avg Video Rate  Max 1-Sec Rate  Max 1-Sec Time  Max 5-Sec Rate  Max 5-Sec Time  Max 10Sec Rate  Max 10Sec Time  Avg Frame Size  Max Frame Size  Max Frame Time
------          -------         ------          --------------  --------------  --------------  --------------  --------------  --------------  --------------  --------------  --------------  --------------
1               0:00:00.000     0:08:23.440     12 193 kbps     20 778 kbps     00:08:18.040    18 561 kbps     00:08:04.680    17 420 kbps     00:08:01.480    60 960 bytes    185 675 bytes   00:02:13.720
2               0:08:23.440     0:04:09.799     12 516 kbps     21 224 kbps     00:12:18.520    19 328 kbps     00:12:15.880    18 135 kbps     00:12:14.240    62 579 bytes    174 397 bytes   00:11:26.640
3               0:12:33.240     0:07:53.000     11 401 kbps     22 509 kbps     00:13:49.000    18 470 kbps     00:13:47.640    16 147 kbps     00:19:13.480    57 005 bytes    169 624 bytes   00:20:14.720
4               0:20:26.240     0:08:10.999     11 806 kbps     21 958 kbps     00:26:42.960    17 507 kbps     00:23:03.760    16 830 kbps     00:21:54.760    59 031 bytes    195 096 bytes   00:26:41.000
5               0:28:37.239     0:04:55.800     12 535 kbps     17 939 kbps     00:33:04.360    16 689 kbps     00:33:02.920    16 409 kbps     00:33:02.920    62 676 bytes    180 771 bytes   00:31:15.920
6               0:33:33.040     0:04:04.199     11 968 kbps     19 409 kbps     00:34:24.719    18 223 kbps     00:34:55.640    18 025 kbps     00:36:18.320    59 851 bytes    190 921 bytes   00:34:25.560
STREAM DIAGNOSTICS:
File            PID             Type            Codec           Language                Seconds                 Bitrate                 Bytes           Packets
----            ---             ----            -----           --------                --------------          --------------          -------------   -----
00007.M2TS      4113 (0x1011)   0x1B            AVC                                     2257,080                12 000                  3 385 626 204   18 433 126
00007.M2TS      4352 (0x1100)   0x81            AC3             rus (Russian)           2257,080                192                     54 173 952      352 695
00007.M2TS      4353 (0x1101)   0x81            AC3             rus (Russian)           2257,080                192                     54 173 952      352 695
00007.M2TS      4354 (0x1102)   0x81            AC3             rus (Russian)           2257,080                192                     54 173 952      352 695
QUICK SUMMARY:
Disc Title:
Disc Size: 46 988 561 006 bytes
Protection: AACS
BD-Java: No
Playlist: 00006.MPLS
Size: 3 756 834 816 bytes
Length: 0:37:37
Total Bitrate: 13,31 Mbps
Video: MPEG-4 AVC Video / 11999 kbps / 576i / 25 fps / 4:3 / High Profile 4.1
Audio: Russian / Dolby Digital Audio / 2.0 / 48 kHz / 192 kbps / DN -4dB
Audio: Russian / Dolby Digital Audio / 2.0 / 48 kHz / 192 kbps / DN -4dB
Audio: Russian / Dolby Digital Audio / 2.0 / 48 kHz / 192 kbps / DN -4dB
********************
PLAYLIST: 00000.MPLS
********************
Total   Video
Title                                                           Codec   Length  Movie Size      Disc Size       Bitrate Bitrate Main Audio Track                          Secondary Audio Track
-----                                                           ------  ------- --------------  --------------  ------- ------- ------------------                        ---------------------
00000.MPLS                                                      MPEG-2  0:22:03 1 702 379 520   46 988 561 006  10,29   9,10    DD AC3 2.0 192Kbps
DISC INFO:
Disc Title:
Disc Size:      46 988 561 006 bytes
Protection:     AACS
BD-Java:        No
BDInfo:         0.5.3
PLAYLIST REPORT:
Name:                   00000.MPLS
Length:                 0:22:03 (h:m:s)
Size:                   1 702 379 520 bytes
Total Bitrate:          10,29 Mbps
VIDEO:
Codec                   Bitrate             Description
-----                   -------             -----------
MPEG-2 Video            9100 kbps           576i / 25 fps / 4:3
AUDIO:
Codec                           Language        Bitrate         Description
-----                           --------        -------         -----------
Dolby Digital Audio             Russian         192 kbps        2.0 / 48 kHz / 192 kbps / DN -4dB
Dolby Digital Audio             Russian         192 kbps        2.0 / 48 kHz / 192 kbps / DN -4dB
Dolby Digital Audio             Russian         192 kbps        2.0 / 48 kHz / 192 kbps / DN -4dB
FILES:
Name            Time In         Length          Size            Total Bitrate
----            -------         ------          ----            -------------
00004.M2TS      0:00:00.000     0:22:03.359     1 702 379 520   10 291
CHAPTERS:
Number          Time In         Length          Avg Video Rate  Max 1-Sec Rate  Max 1-Sec Time  Max 5-Sec Rate  Max 5-Sec Time  Max 10Sec Rate  Max 10Sec Time  Avg Frame Size  Max Frame Size  Max Frame Time
------          -------         ------          --------------  --------------  --------------  --------------  --------------  --------------  --------------  --------------  --------------  --------------
1               0:00:00.000     0:08:57.680     9 100 kbps      9 831 kbps      00:07:27.000    9 250 kbps      00:07:27.160    9 171 kbps      00:07:33.280    45 498 bytes    108 712 bytes   00:07:30.000
2               0:08:57.680     0:10:33.599     9 100 kbps      9 875 kbps      00:18:32.000    9 245 kbps      00:18:31.119    9 200 kbps      00:18:16.600    45 500 bytes    114 606 bytes   00:18:52.800
3               0:19:31.280     0:02:32.079     9 099 kbps      9 451 kbps      00:21:38.600    9 170 kbps      00:21:34.600    9 135 kbps      00:21:29.560    45 508 bytes    74 176 bytes    00:22:03.320
STREAM DIAGNOSTICS:
File            PID             Type            Codec           Language                Seconds                 Bitrate                 Bytes           Packets
----            ---             ----            -----           --------                --------------          --------------          -------------   -----
00004.M2TS      4113 (0x1011)   0x02            MPEG-2                                  1323,200                9 101                   1 505 322 004   8 201 893
00004.M2TS      4352 (0x1100)   0x81            AC3             rus (Russian)           1323,200                192                     31 759 872      206 770
00004.M2TS      4353 (0x1101)   0x81            AC3             rus (Russian)           1323,200                192                     31 759 872      206 770
00004.M2TS      4354 (0x1102)   0x81            AC3             rus (Russian)           1323,200                192                     31 759 872      206 770
QUICK SUMMARY:
Disc Title:
Disc Size: 46 988 561 006 bytes
Protection: AACS
BD-Java: No
Playlist: 00000.MPLS
Size: 1 702 379 520 bytes
Length: 0:22:03
Total Bitrate: 10,29 Mbps
Video: MPEG-2 Video / 9100 kbps / 576i / 25 fps / 4:3
Audio: Russian / Dolby Digital Audio / 2.0 / 48 kHz / 192 kbps / DN -4dB
Audio: Russian / Dolby Digital Audio / 2.0 / 48 kHz / 192 kbps / DN -4dB
Audio: Russian / Dolby Digital Audio / 2.0 / 48 kHz / 192 kbps / DN -4dB
********************
PLAYLIST: 00007.MPLS
********************
Total   Video
Title                                                           Codec   Length  Movie Size      Disc Size       Bitrate Bitrate Main Audio Track                          Secondary Audio Track
-----                                                           ------  ------- --------------  --------------  ------- ------- ------------------                        ---------------------
00007.MPLS                                                      AVC     0:03:09 755 785 728     46 988 561 006  31,88   29,10   DD AC3 5.1 448Kbps                        DD AC3 5.1 448Kbps
DISC INFO:
Disc Title:
Disc Size:      46 988 561 006 bytes
Protection:     AACS
BD-Java:        No
BDInfo:         0.5.3
PLAYLIST REPORT:
Name:                   00007.MPLS
Length:                 0:03:09 (h:m:s)
Size:                   755 785 728 bytes
Total Bitrate:          31,88 Mbps
VIDEO:
Codec                   Bitrate             Description
-----                   -------             -----------
MPEG-4 AVC Video        29104 kbps          1080p / 23,976 fps / 16:9 / High Profile 4.1
AUDIO:
Codec                           Language        Bitrate         Description
-----                           --------        -------         -----------
Dolby Digital Audio             Russian         448 kbps        5.1 / 48 kHz / 448 kbps / DN -4dB
Dolby Digital Audio             Russian         448 kbps        5.1 / 48 kHz / 448 kbps / DN -4dB
Dolby Digital Audio             Russian         448 kbps        5.1 / 48 kHz / 448 kbps / DN -4dB
FILES:
Name            Time In         Length          Size            Total Bitrate
----            -------         ------          ----            -------------
00009.M2TS      0:00:00.000     0:03:09.647     755 785 728     31 882
CHAPTERS:
Number          Time In         Length          Avg Video Rate  Max 1-Sec Rate  Max 1-Sec Time  Max 5-Sec Rate  Max 5-Sec Time  Max 10Sec Rate  Max 10Sec Time  Avg Frame Size  Max Frame Size  Max Frame Time
------          -------         ------          --------------  --------------  --------------  --------------  --------------  --------------  --------------  --------------  --------------  --------------
1               0:00:00.000     0:03:09.647     29 104 kbps     45 193 kbps     00:01:50.109    38 417 kbps     00:01:49.651    35 113 kbps     00:02:57.051    151 737 bytes   534 465 bytes   00:00:46.212
STREAM DIAGNOSTICS:
File            PID             Type            Codec           Language                Seconds                 Bitrate                 Bytes           Packets
----            ---             ----            -----           --------                --------------          --------------          -------------   -----
00009.M2TS      4113 (0x1011)   0x1B            AVC                                     189,523                 29 124                  689 945 879     3 752 355
00009.M2TS      4352 (0x1100)   0x81            AC3             rus (Russian)           189,523                 448                     10 610 432      59 210
00009.M2TS      4353 (0x1101)   0x81            AC3             rus (Russian)           189,523                 448                     10 610 432      59 210
00009.M2TS      4354 (0x1102)   0x81            AC3             rus (Russian)           189,523                 448                     10 610 432      59 210
QUICK SUMMARY:
Disc Title:
Disc Size: 46 988 561 006 bytes
Protection: AACS
BD-Java: No
Playlist: 00007.MPLS
Size: 755 785 728 bytes
Length: 0:03:09
Total Bitrate: 31,88 Mbps
Video: MPEG-4 AVC Video / 29104 kbps / 1080p / 23,976 fps / 16:9 / High Profile 4.1
Audio: Russian / Dolby Digital Audio / 5.1 / 48 kHz / 448 kbps / DN -4dB
Audio: Russian / Dolby Digital Audio / 5.1 / 48 kHz / 448 kbps / DN -4dB
Audio: Russian / Dolby Digital Audio / 5.1 / 48 kHz / 448 kbps / DN -4dB
********************
PLAYLIST: 00010.MPLS
********************
Total   Video
Title                                                           Codec   Length  Movie Size      Disc Size       Bitrate Bitrate Main Audio Track                          Secondary Audio Track
-----                                                           ------  ------- --------------  --------------  ------- ------- ------------------                        ---------------------
00010.MPLS                                                      MPEG-2  0:03:07 164 124 672     46 988 561 006  7,01    5,96    DD AC3 2.0 192Kbps
DISC INFO:
Disc Title:
Disc Size:      46 988 561 006 bytes
Protection:     AACS
BD-Java:        No
BDInfo:         0.5.3
PLAYLIST REPORT:
Name:                   00010.MPLS
Length:                 0:03:07 (h:m:s)
Size:                   164 124 672 bytes
Total Bitrate:          7,01 Mbps
VIDEO:
Codec                   Bitrate             Description
-----                   -------             -----------
MPEG-2 Video            5955 kbps           576i / 25 fps / 4:3
AUDIO:
Codec                           Language        Bitrate         Description
-----                           --------        -------         -----------
Dolby Digital Audio             Russian         192 kbps        2.0 / 48 kHz / 192 kbps / DN -4dB
Dolby Digital Audio             Russian         192 kbps        2.0 / 48 kHz / 192 kbps / DN -4dB
Dolby Digital Audio             Russian         192 kbps        2.0 / 48 kHz / 192 kbps / DN -4dB
FILES:
Name            Time In         Length          Size            Total Bitrate
----            -------         ------          ----            -------------
00015.M2TS      0:00:00.000     0:03:07.360     164 124 672     7 008
CHAPTERS:
Number          Time In         Length          Avg Video Rate  Max 1-Sec Rate  Max 1-Sec Time  Max 5-Sec Rate  Max 5-Sec Time  Max 10Sec Rate  Max 10Sec Time  Avg Frame Size  Max Frame Size  Max Frame Time
------          -------         ------          --------------  --------------  --------------  --------------  --------------  --------------  --------------  --------------  --------------  --------------
1               0:00:00.000     0:03:07.360     5 955 kbps      7 317 kbps      00:00:35.120    6 259 kbps      00:00:05.840    6 169 kbps      00:00:26.080    29 776 bytes    164 933 bytes   00:00:05.959
STREAM DIAGNOSTICS:
File            PID             Type            Codec           Language                Seconds                 Bitrate                 Bytes           Packets
----            ---             ----            -----           --------                --------------          --------------          -------------   -----
00015.M2TS      4113 (0x1011)   0x02            MPEG-2                                  187,240                 5 959                   139 471 428     760 703
00015.M2TS      4352 (0x1100)   0x81            AC3             rus (Russian)           187,240                 192                     4 495 872       29 270
00015.M2TS      4353 (0x1101)   0x81            AC3             rus (Russian)           187,240                 192                     4 495 872       29 270
00015.M2TS      4354 (0x1102)   0x81            AC3             rus (Russian)           187,240                 192                     4 495 872       29 270
QUICK SUMMARY:
Disc Title:
Disc Size: 46 988 561 006 bytes
Protection: AACS
BD-Java: No
Playlist: 00010.MPLS
Size: 164 124 672 bytes
Length: 0:03:07
Total Bitrate: 7,01 Mbps
Video: MPEG-2 Video / 5955 kbps / 576i / 25 fps / 4:3
Audio: Russian / Dolby Digital Audio / 2.0 / 48 kHz / 192 kbps / DN -4dB
Audio: Russian / Dolby Digital Audio / 2.0 / 48 kHz / 192 kbps / DN -4dB
Audio: Russian / Dolby Digital Audio / 2.0 / 48 kHz / 192 kbps / DN -4dB
********************
PLAYLIST: 00008.MPLS
********************
Total   Video
Title                                                           Codec   Length  Movie Size      Disc Size       Bitrate Bitrate Main Audio Track                          Secondary Audio Track
-----                                                           ------  ------- --------------  --------------  ------- ------- ------------------                        ---------------------
00008.MPLS                                                      AVC     0:02:59 530 958 336     46 988 561 006  23,66   21,92   DD AC3 2.0 192Kbps
DISC INFO:
Disc Title:
Disc Size:      46 988 561 006 bytes
Protection:     AACS
BD-Java:        No
BDInfo:         0.5.3
PLAYLIST REPORT:
Name:                   00008.MPLS
Length:                 0:02:59 (h:m:s)
Size:                   530 958 336 bytes
Total Bitrate:          23,66 Mbps
VIDEO:
Codec                   Bitrate             Description
-----                   -------             -----------
MPEG-4 AVC Video        21916 kbps          1080p / 23,976 fps / 16:9 / High Profile 4.1
AUDIO:
Codec                           Language        Bitrate         Description
-----                           --------        -------         -----------
Dolby Digital Audio             Russian         192 kbps        2.0 / 48 kHz / 192 kbps / DN -4dB
Dolby Digital Audio             Russian         192 kbps        2.0 / 48 kHz / 192 kbps / DN -4dB
Dolby Digital Audio             Russian         192 kbps        2.0 / 48 kHz / 192 kbps / DN -4dB
FILES:
Name            Time In         Length          Size            Total Bitrate
----            -------         ------          ----            -------------
00010.M2TS      0:00:00.000     0:02:59.512     530 958 336     23 662
CHAPTERS:
Number          Time In         Length          Avg Video Rate  Max 1-Sec Rate  Max 1-Sec Time  Max 5-Sec Rate  Max 5-Sec Time  Max 10Sec Rate  Max 10Sec Time  Avg Frame Size  Max Frame Size  Max Frame Time
------          -------         ------          --------------  --------------  --------------  --------------  --------------  --------------  --------------  --------------  --------------  --------------
1               0:00:00.000     0:02:59.512     21 916 kbps     39 620 kbps     00:00:22.355    35 127 kbps     00:02:40.076    29 857 kbps     00:02:35.113    114 260 bytes   421 401 bytes   00:02:42.787
STREAM DIAGNOSTICS:
File            PID             Type            Codec           Language                Seconds                 Bitrate                 Bytes           Packets
----            ---             ----            -----           --------                --------------          --------------          -------------   -----
00010.M2TS      4113 (0x1011)   0x1B            AVC                                     179,388                 21 931                  491 775 636     2 675 213
00010.M2TS      4352 (0x1100)   0x81            AC3             rus (Russian)           179,388                 192                     4 308 480       28 050
00010.M2TS      4353 (0x1101)   0x81            AC3             rus (Russian)           179,388                 192                     4 308 480       28 050
00010.M2TS      4354 (0x1102)   0x81            AC3             rus (Russian)           179,388                 192                     4 308 480       28 050
QUICK SUMMARY:
Disc Title:
Disc Size: 46 988 561 006 bytes
Protection: AACS
BD-Java: No
Playlist: 00008.MPLS
Size: 530 958 336 bytes
Length: 0:02:59
Total Bitrate: 23,66 Mbps
Video: MPEG-4 AVC Video / 21916 kbps / 1080p / 23,976 fps / 16:9 / High Profile 4.1
Audio: Russian / Dolby Digital Audio / 2.0 / 48 kHz / 192 kbps / DN -4dB
Audio: Russian / Dolby Digital Audio / 2.0 / 48 kHz / 192 kbps / DN -4dB
Audio: Russian / Dolby Digital Audio / 2.0 / 48 kHz / 192 kbps / DN -4dB
********************
PLAYLIST: 00012.MPLS
********************
Total   Video
Title                                                           Codec   Length  Movie Size      Disc Size       Bitrate Bitrate Main Audio Track                          Secondary Audio Track
-----                                                           ------  ------- --------------  --------------  ------- ------- ------------------                        ---------------------
00012.MPLS                                                      MPEG-2  0:02:31 153 821 184     46 988 561 006  8,10    7,00    DD AC3 2.0 192Kbps
DISC INFO:
Disc Title:
Disc Size:      46 988 561 006 bytes
Protection:     AACS
BD-Java:        No
BDInfo:         0.5.3
PLAYLIST REPORT:
Name:                   00012.MPLS
Length:                 0:02:31 (h:m:s)
Size:                   153 821 184 bytes
Total Bitrate:          8,10 Mbps
VIDEO:
Codec                   Bitrate             Description
-----                   -------             -----------
MPEG-2 Video            7000 kbps           576i / 25 fps / 4:3
AUDIO:
Codec                           Language        Bitrate         Description
-----                           --------        -------         -----------
Dolby Digital Audio             Russian         192 kbps        2.0 / 48 kHz / 192 kbps / DN -4dB
Dolby Digital Audio             Russian         192 kbps        2.0 / 48 kHz / 192 kbps / DN -4dB
Dolby Digital Audio             Russian         192 kbps        2.0 / 48 kHz / 192 kbps / DN -4dB
FILES:
Name            Time In         Length          Size            Total Bitrate
----            -------         ------          ----            -------------
00012.M2TS      0:00:00.000     0:02:31.880     153 821 184     8 102
CHAPTERS:
Number          Time In         Length          Avg Video Rate  Max 1-Sec Rate  Max 1-Sec Time  Max 5-Sec Rate  Max 5-Sec Time  Max 10Sec Rate  Max 10Sec Time  Avg Frame Size  Max Frame Size  Max Frame Time
------          -------         ------          --------------  --------------  --------------  --------------  --------------  --------------  --------------  --------------  --------------  --------------
1               0:00:00.000     0:02:31.880     7 000 kbps      8 050 kbps      00:00:25.799    7 210 kbps      00:00:21.799    7 105 kbps      00:00:16.759    34 998 bytes    98 855 bytes    00:02:15.480
STREAM DIAGNOSTICS:
File            PID             Type            Codec           Language                Seconds                 Bitrate                 Bytes           Packets
----            ---             ----            -----           --------                --------------          --------------          -------------   -----
00012.M2TS      4113 (0x1011)   0x02            MPEG-2                                  151,800                 7 003                   132 886 997     724 821
00012.M2TS      4352 (0x1100)   0x81            AC3             rus (Russian)           151,800                 192                     3 644 928       23 730
00012.M2TS      4353 (0x1101)   0x81            AC3             rus (Russian)           151,800                 192                     3 644 928       23 730
00012.M2TS      4354 (0x1102)   0x81            AC3             rus (Russian)           151,800                 192                     3 644 928       23 730
QUICK SUMMARY:
Disc Title:
Disc Size: 46 988 561 006 bytes
Protection: AACS
BD-Java: No
Playlist: 00012.MPLS
Size: 153 821 184 bytes
Length: 0:02:31
Total Bitrate: 8,10 Mbps
Video: MPEG-2 Video / 7000 kbps / 576i / 25 fps / 4:3
Audio: Russian / Dolby Digital Audio / 2.0 / 48 kHz / 192 kbps / DN -4dB
Audio: Russian / Dolby Digital Audio / 2.0 / 48 kHz / 192 kbps / DN -4dB
Audio: Russian / Dolby Digital Audio / 2.0 / 48 kHz / 192 kbps / DN -4dB
********************
PLAYLIST: 00013.MPLS
********************
Total   Video
Title                                                           Codec   Length  Movie Size      Disc Size       Bitrate Bitrate Main Audio Track                          Secondary Audio Track
-----                                                           ------  ------- --------------  --------------  ------- ------- ------------------                        ---------------------
00013.MPLS                                                      AVC     0:02:07 479 096 832     46 988 561 006  29,98   27,97   DD AC3 2.0 192Kbps
DISC INFO:
Disc Title:
Disc Size:      46 988 561 006 bytes
Protection:     AACS
BD-Java:        No
BDInfo:         0.5.3
PLAYLIST REPORT:
Name:                   00013.MPLS
Length:                 0:02:07 (h:m:s)
Size:                   479 096 832 bytes
Total Bitrate:          29,98 Mbps
VIDEO:
Codec                   Bitrate             Description
-----                   -------             -----------
MPEG-4 AVC Video        27972 kbps          1080p / 23,976 fps / 16:9 / High Profile 4.1
AUDIO:
Codec                           Language        Bitrate         Description
-----                           --------        -------         -----------
Dolby Digital Audio             Russian         192 kbps        2.0 / 48 kHz / 192 kbps / DN -4dB
Dolby Digital Audio             Russian         192 kbps        2.0 / 48 kHz / 192 kbps / DN -4dB
Dolby Digital Audio             Russian         192 kbps        2.0 / 48 kHz / 192 kbps / DN -4dB
FILES:
Name            Time In         Length          Size            Total Bitrate
----            -------         ------          ----            -------------
00013.M2TS      0:00:00.000     0:02:07.836     479 096 832     29 982
CHAPTERS:
Number          Time In         Length          Avg Video Rate  Max 1-Sec Rate  Max 1-Sec Time  Max 5-Sec Rate  Max 5-Sec Time  Max 10Sec Rate  Max 10Sec Time  Avg Frame Size  Max Frame Size  Max Frame Time
------          -------         ------          --------------  --------------  --------------  --------------  --------------  --------------  --------------  --------------  --------------  --------------
1               0:00:00.000     0:02:07.836     27 972 kbps     41 432 kbps     00:00:24.107    33 973 kbps     00:00:09.926    31 869 kbps     00:00:24.107    145 835 bytes   550 439 bytes   00:00:13.179
STREAM DIAGNOSTICS:
File            PID             Type            Codec           Language                Seconds                 Bitrate                 Bytes           Packets
----            ---             ----            -----           --------                --------------          --------------          -------------   -----
00013.M2TS      4113 (0x1011)   0x1B            AVC                                     127,753                 27 991                  446 983 815     2 431 070
00013.M2TS      4352 (0x1100)   0x81            AC3             rus (Russian)           127,753                 192                     3 068 160       19 975
00013.M2TS      4353 (0x1101)   0x81            AC3             rus (Russian)           127,753                 192                     3 068 160       19 975
00013.M2TS      4354 (0x1102)   0x81            AC3             rus (Russian)           127,753                 192                     3 068 160       19 975
QUICK SUMMARY:
Disc Title:
Disc Size: 46 988 561 006 bytes
Protection: AACS
BD-Java: No
Playlist: 00013.MPLS
Size: 479 096 832 bytes
Length: 0:02:07
Total Bitrate: 29,98 Mbps
Video: MPEG-4 AVC Video / 27972 kbps / 1080p / 23,976 fps / 16:9 / High Profile 4.1
Audio: Russian / Dolby Digital Audio / 2.0 / 48 kHz / 192 kbps / DN -4dB
Audio: Russian / Dolby Digital Audio / 2.0 / 48 kHz / 192 kbps / DN -4dB
Audio: Russian / Dolby Digital Audio / 2.0 / 48 kHz / 192 kbps / DN -4dB
********************
PLAYLIST: 00011.MPLS
********************
Total   Video
Title                                                           Codec   Length  Movie Size      Disc Size       Bitrate Bitrate Main Audio Track                          Secondary Audio Track
-----                                                           ------  ------- --------------  --------------  ------- ------- ------------------                        ---------------------
00011.MPLS                                                      MPEG-2  0:01:17 78 686 208      46 988 561 006  8,10    7,00    DD AC3 2.0 192Kbps
DISC INFO:
Disc Title:
Disc Size:      46 988 561 006 bytes
Protection:     AACS
BD-Java:        No
BDInfo:         0.5.3
PLAYLIST REPORT:
Name:                   00011.MPLS
Length:                 0:01:17 (h:m:s)
Size:                   78 686 208 bytes
Total Bitrate:          8,10 Mbps
VIDEO:
Codec                   Bitrate             Description
-----                   -------             -----------
MPEG-2 Video            6999 kbps           576i / 25 fps / 4:3
AUDIO:
Codec                           Language        Bitrate         Description
-----                           --------        -------         -----------
Dolby Digital Audio             Russian         192 kbps        2.0 / 48 kHz / 192 kbps / DN -4dB
Dolby Digital Audio             Russian         192 kbps        2.0 / 48 kHz / 192 kbps / DN -4dB
Dolby Digital Audio             Russian         192 kbps        2.0 / 48 kHz / 192 kbps / DN -4dB
FILES:
Name            Time In         Length          Size            Total Bitrate
----            -------         ------          ----            -------------
00011.M2TS      0:00:00.000     0:01:17.720     78 686 208      8 099
CHAPTERS:
Number          Time In         Length          Avg Video Rate  Max 1-Sec Rate  Max 1-Sec Time  Max 5-Sec Rate  Max 5-Sec Time  Max 10Sec Rate  Max 10Sec Time  Avg Frame Size  Max Frame Size  Max Frame Time
------          -------         ------          --------------  --------------  --------------  --------------  --------------  --------------  --------------  --------------  --------------  --------------
1               0:00:00.000     0:01:17.720     6 999 kbps      8 071 kbps      00:00:42.639    7 214 kbps      00:00:38.639    7 103 kbps      00:01:01.880    34 996 bytes    125 175 bytes   00:00:31.120
STREAM DIAGNOSTICS:
File            PID             Type            Codec           Language                Seconds                 Bitrate                 Bytes           Packets
----            ---             ----            -----           --------                --------------          --------------          -------------   -----
00011.M2TS      4113 (0x1011)   0x02            MPEG-2                                  77,640                  7 006                   67 996 996      370 775
00011.M2TS      4352 (0x1100)   0x81            AC3             rus (Russian)           77,640                  192                     1 864 704       12 140
00011.M2TS      4353 (0x1101)   0x81            AC3             rus (Russian)           77,640                  192                     1 864 704       12 140
00011.M2TS      4354 (0x1102)   0x81            AC3             rus (Russian)           77,640                  192                     1 864 704       12 140
QUICK SUMMARY:
Disc Title:
Disc Size: 46 988 561 006 bytes
Protection: AACS
BD-Java: No
Playlist: 00011.MPLS
Size: 78 686 208 bytes
Length: 0:01:17
Total Bitrate: 8,10 Mbps
Video: MPEG-2 Video / 6999 kbps / 576i / 25 fps / 4:3
Audio: Russian / Dolby Digital Audio / 2.0 / 48 kHz / 192 kbps / DN -4dB
Audio: Russian / Dolby Digital Audio / 2.0 / 48 kHz / 192 kbps / DN -4dB
Audio: Russian / Dolby Digital Audio / 2.0 / 48 kHz / 192 kbps / DN -4dB
********************
PLAYLIST: 00003.MPLS
********************
Total   Video
Title                                                           Codec   Length  Movie Size      Disc Size       Bitrate Bitrate Main Audio Track                          Secondary Audio Track
-----                                                           ------  ------- --------------  --------------  ------- ------- ------------------                        ---------------------
00003.MPLS                                                      AVC     0:01:06 207 740 928     46 988 561 006  25,14   23,79   DD AC3 2.0 192Kbps
DISC INFO:
Disc Title:
Disc Size:      46 988 561 006 bytes
Protection:     AACS
BD-Java:        No
BDInfo:         0.5.3
PLAYLIST REPORT:
Name:                   00003.MPLS
Length:                 0:01:06 (h:m:s)
Size:                   207 740 928 bytes
Total Bitrate:          25,14 Mbps
VIDEO:
Codec                   Bitrate             Description
-----                   -------             -----------
MPEG-4 AVC Video        23794 kbps          1080p / 23,976 fps / 16:9 / High Profile 4.1
AUDIO:
Codec                           Language        Bitrate         Description
-----                           --------        -------         -----------
Dolby Digital Audio             Russian         192 kbps        2.0 / 48 kHz / 192 kbps / DN -4dB
FILES:
Name            Time In         Length          Size            Total Bitrate
----            -------         ------          ----            -------------
00008.M2TS      0:00:00.000     0:01:06.107     207 740 928     25 140
CHAPTERS:
Number          Time In         Length          Avg Video Rate  Max 1-Sec Rate  Max 1-Sec Time  Max 5-Sec Rate  Max 5-Sec Time  Max 10Sec Rate  Max 10Sec Time  Avg Frame Size  Max Frame Size  Max Frame Time
------          -------         ------          --------------  --------------  --------------  --------------  --------------  --------------  --------------  --------------  --------------  --------------
1               0:00:00.000     0:01:06.107     23 794 kbps     34 978 kbps     00:00:06.548    33 650 kbps     00:00:03.294    30 948 kbps     00:00:03.003    124 051 bytes   319 038 bytes   00:00:03.086
STREAM DIAGNOSTICS:
File            PID             Type            Codec           Language                Seconds                 Bitrate                 Bytes           Packets
----            ---             ----            -----           --------                --------------          --------------          -------------   -----
00008.M2TS      4113 (0x1011)   0x1B            AVC                                     65,983                  23 839                  196 621 498     1 069 540
00008.M2TS      4352 (0x1100)   0x81            AC3             rus (Russian)           65,983                  190                     1 569 024       10 215
QUICK SUMMARY:
Disc Title:
Disc Size: 46 988 561 006 bytes
Protection: AACS
BD-Java: No
Playlist: 00003.MPLS
Size: 207 740 928 bytes
Length: 0:01:06
Total Bitrate: 25,14 Mbps
Video: MPEG-4 AVC Video / 23794 kbps / 1080p / 23,976 fps / 16:9 / High Profile 4.1
Audio: Russian / Dolby Digital Audio / 2.0 / 48 kHz / 192 kbps / DN -4dB
-Бюджет: $15 000 000
Cборы в мире: $16 806 500

Награды

Кинонаграды «MTV-Россия», 2009 год
Победитель:
- Лучший злодей (Евгения Хиривская)
- Лучший поцелуй — «Мэлс и Польза»
- Лучший саундтрек — «Американская жена («ВИАГРА»)»
Номинации:
- Лучший фильм
- Лучшая женская роль (Оксана Акиньшина)
- Самая зрелищная сцена
Ника, 2009 год
Победитель:
- Лучший фильм
- Лучшие костюмы
- Лучший звук
- Лучшая работа художника-постановщика
Номинации:
- Лучшая мужская роль второго плана (Сергей Гармаш)
- Лучшая женская роль второго плана (Евгения Хиривская)
- Открытие года (Константин Меладзе)
- Лучший режиссер (Валерий Тодоровский)

Интересные факты

- Второе название фильма — «Буги на костях». Это словосочетание связано с процессом записи музыки на рентгеновские снимки.
- Действие фильма происходит в 1955 году, хотя большинство музыкальных композиций взяты из 80-х.
- Валерий Тодоровский планировал снять этот фильм ещё в 2005 году и начал к нему подготовку, но понял, что проект слишком сложен и масштабен. Чтобы не терять уже собранную команду актёров и съёмочную группу, он решил снять «более простой» фильм «Тиски».
- Для роли Боба Игорь Войнаровский набрал 20 килограмм лишнего веса.

Скриншоты

меню диска

главное меню: есть

mediainfo

General #0
ID : 0
Format : BDAV
Format/Info : BluRay Video
File size : 377 MiB
Duration : 1mn 42s
Overall bit rate : 30.8 Mbps
Maximum Overall bit rate : 48.0 Mbps
Video #4113
ID : 4113 (0x1011)
Menu ID : 1 (0x1)
Format : AVC
Format/Info : Advanced Video Codec
Format profile : High@L4.1
Format settings, CABAC : Yes
Format settings, ReFrames : 4 frames
Duration : 1mn 42s
Width : 1 920 pixels
Height : 1 080 pixels
Display aspect ratio : 16/9
Frame rate : 23.976 fps
Standard : NTSC
Resolution : 24 bits
Colorimetry : 4:2:0
Scan type : Progressive
Audio #4352
ID : 4352 (0x1100)
Menu ID : 1 (0x1)
Format : PCM
Format settings, Endianness : Big
Format settings, Sign : Signed
Bit rate mode : Constant
Channel(s) : 6 channels
Channel positions : Front: L R C, Rear: L R, LFE
Audio #4353
ID : 4353 (0x1101)
Menu ID : 1 (0x1)
Format : AC-3
Format/Info : Audio Coding 3
Duration : 1mn 42s
Bit rate mode : Constant
Bit rate : 448 Kbps
Channel(s) : 6 channels
Channel positions : Front: L C R, Surround: L R, LFE
Sampling rate : 48.0 KHz
Audio #4354
ID : 4354 (0x1102)
Menu ID : 1 (0x1)
Format : AC-3
Format/Info : Audio Coding 3
Duration : 1mn 42s
Bit rate mode : Constant
Bit rate : 448 Kbps
Channel(s) : 6 channels
Channel positions : Front: L C R, Surround: L R, LFE
Sampling rate : 48.0 KHz

доп. материалы

Дополнительные материалы:
  • Фильм о фильме
  • Трейлеры

    mediainfo

    General #0
    ID : 0
    Format : BDAV
    Format/Info : BluRay Video
    File size : 3.50 GiB
    Duration : 37mn 37s
    Overall bit rate : 13.3 Mbps
    Maximum Overall bit rate : 48.0 Mbps
    Video #4113
    ID : 4113 (0x1011)
    Menu ID : 1 (0x1)
    Format : AVC
    Format/Info : Advanced Video Codec
    Format profile : High@L4.1
    Format settings, CABAC : Yes
    Format settings, ReFrames : 4 frames
    Duration : 37mn 37s
    Bit rate : 12.2 Mbps
    Width : 720 pixels
    Height : 576 pixels
    Display aspect ratio : 4/3
    Frame rate : 25.000 fps
    Standard : PAL
    Resolution : 24 bits
    Colorimetry : 4:2:0
    Scan type : MBAFF
    Bits/(Pixel*Frame) : 1.177
    Audio #4352
    ID : 4352 (0x1100)
    Menu ID : 1 (0x1)
    Format : AC-3
    Format/Info : Audio Coding 3
    Duration : 37mn 37s
    Bit rate mode : Constant
    Bit rate : 192 Kbps
    Channel(s) : 2 channels
    Channel positions : L R
    Sampling rate : 48.0 KHz
    Audio #4353
    ID : 4353 (0x1101)
    Menu ID : 1 (0x1)
    Format : AC-3
    Format/Info : Audio Coding 3
    Duration : 37mn 37s
    Bit rate mode : Constant
    Bit rate : 192 Kbps
    Channel(s) : 2 channels
    Channel positions : L R
    Sampling rate : 48.0 KHz
    Audio #4354
    ID : 4354 (0x1102)
    Menu ID : 1 (0x1)
    Format : AC-3
    Format/Info : Audio Coding 3
    Duration : 37mn 37s
    Bit rate mode : Constant
    Bit rate : 192 Kbps
    Channel(s) : 2 channels
    Channel positions : L R
    Sampling rate : 48.0 KHz
[Профиль] [ЛС]
Показать сообщения:    

Текущее время: Сегодня 14:04

Часовой пояс: GMT



Вы не можете начинать темы
Вы не можете отвечать на сообщения
Вы не можете редактировать свои сообщения
Вы не можете удалять свои сообщения
Вы не можете голосовать в опросах
Вы не можете прикреплять файлы к сообщениям
Вы не можете скачивать файлы