Стив Джобс / Steve Jobs (2015) BDRip 720p | Line

 
Автор Сообщение

достали все ®

Пол:

Стаж: 1 год 8 месяцев

Сообщений: 6554



Награды: 12 (Подробнее)

Mega Seeder 4 (Количество: 1) Mega Seeder 3 (Количество: 1) Mega Seeder 1 (Количество: 1)
Торрент-статистика

Создавать темы 11-Фев-2016 09:25

[Цитировать]

Год выпуска: 2015
Страна: США, Великобритания
Жанр: драма, биография
Продолжительность: 02:02:00
Перевод: Дублированный [Чистый звук]
Субтитры: Русские
Режиссер: Дэнни Бойл / Danny Boyle
В ролях: Майкл Фассбендер, Сет Роген, Джефф Дэниелс, Кейт Уинслет, Майкл Стулбарг, Кэтрин Уотерстон, Перла Аней-Жардине, Рипли Собо, Макензи Мосс, Сара Снук
Описание: Фильм «Стив Джобс» рассказывает о трёх ключевых отправных точках в биографии первопроходца в IT-технологиях.
Apple в 1984 году готовится к презентации Макинтош. По не обоснованному мнению Джобса, за квартал будет реализовано порядка миллиона компьютеров, хотя Джоанна Хоффман – коллега и подруга через уговоры и внушения старается убедить Стива в нереальности таких прогнозов. Цены на Мак приходится снижать, цифры упрямо говорят о провале, и совет директоров увольняет со-основателя Apple.
В большую игру Джобс возвращается спустя 4 года. Он основывает NEXT, где прогрессивные идеи преобладают над прочим. Терпящая бедствие, Apple не способна поспевать за развитием передового рынка, и акционеры взывают к Стиву, покупая его новую фирму и возвращая прежнюю должность мастеру.
Застолбить успех и доказать превосходство яблочный гигант смог уже в 1998, когда был представлен iMac. Джобс заматерел на подобных показах, стал ещё решительнее, грубее и жёстче, Стив готов пожертвовать связями, дружбой и временем ради инноваций и эффективности. Он творил историю и был её ключевым элементом.

Качество видео: BDRip 720p
Формат видео: MKV
Видео: 1280х534, 23.976 fps, AVC ~7007 kbps avg
Аудио: 48 kHz, AC3 Dolby Digital, 2/0 (L,R) ch, ~192 kbps - дубляж
Аудио: 48 kHz, DTS, 3/2 (L,C,R,l,r) + LFE ch, ~1536 kbps avg - оригинал

Инфо-файл

raw [info]: 1280x534p 1:1 @ 24000/1001 fps (cfr)
x264 [info]: using SAR=1/1
x264 [info]: using cpu capabilities: MMX2 SSE2Fast SSSE3 SSE4.2 AVX
x264 [info]: profile High, level 4.1
x264 [info]: frame I:1419 Avg QP:13.02 size:140573
x264 [info]: frame P:35388 Avg QP:16.85 size: 56462
x264 [info]: frame B:139207 Avg QP:18.94 size: 30370
x264 [info]: consecutive B-frames: 2.4% 1.8% 6.9% 10.9% 13.1% 49.3% 5.2% 1.7% 2.0% 1.8% 1.8% 1.7% 0.7% 0.5% 0.2%
Общее
Уникальный идентификатор : 196946959818064002548791300181591225009 (0x942A9AD00AAAB5A4B7F2292FF9C272B1)
Полное имя : D:Стив Джобс_2015-BDRip-720р.mkv
Формат : Matroska
Версия формата : Version 2
Размер файла : 7,44 Гбайт
Продолжительность : 2 ч. 2 м.
Общий поток : 8706 Кбит/сек
Название фильма : Steve.Jobs.2015.BDREMUX.1080p
Дата кодирования : UTC 2016-02-11 05:52:56
Программа кодирования : mkvmerge v5.8.0 ('No Sleep / Pillow') built on Sep 2 2012 15:37:04
Библиотека кодирования : libebml v1.2.3 + libmatroska v1.3.0
Видео
Идентификатор : 1
Формат : AVC
Формат/Информация : Advanced Video Codec
Профиль формата : High@L4.1
Параметр CABAC формата : Да
Параметр ReFrames формата : 12 кадров
Идентификатор кодека : V_MPEG4/ISO/AVC
Продолжительность : 2 ч. 2 м.
Битрейт : 7007 Кбит/сек
Ширина : 1280 пикселей
Высота : 534 пикселя
Соотношение сторон : 2,40:1
Режим частоты кадров : Постоянный
Частота кадров : 23,976 кадра/сек
Цветовое пространство : YUV
Субдискретизация насыщенности : 4:2:0
Битовая глубина : 8 бит
Тип развёртки : Прогрессивная
Бит/(Пиксели*Кадры) : 0.428
Размер потока : 5,84 Гбайт (78%)
Библиотека кодирования : x264 core 148 r2638 7599210
Настройки программы : cabac=1 / ref=12 / deblock=1:-3:-2 / analyse=0x3:0x113 / me=umh / subme=10 / psy=1 / psy_rd=1.10:0.00 / mixed_ref=1 / me_range=32 / chroma_me=1 / trellis=2 / 8x8dct=1 / cqm=0 / deadzone=21,11 / fast_pskip=0 / chroma_qp_offset=-2 / threads=12 / lookahead_threads=3 / sliced_threads=0 / nr=0 / decimate=0 / interlaced=0 / bluray_compat=0 / constrained_intra=0 / bframes=14 / b_pyramid=2 / b_adapt=2 / b_bias=0 / direct=3 / weightb=1 / open_gop=0 / weightp=2 / keyint=240 / keyint_min=23 / scenecut=40 / intra_refresh=0 / rc_lookahead=40 / rc=2pass / mbtree=1 / bitrate=7007 / ratetol=1.0 / qcomp=0.60 / qpmin=0 / qpmax=39 / qpstep=4 / cplxblur=20.0 / qblur=0.5 / ip_ratio=1.40 / aq=3:0.80
Язык : English
Default : Да
Forced : Нет
Основные цвета : BT.709
Характеристики трансфера : BT.709
Коэффициенты матрицы : BT.709
Аудио #1
Идентификатор : 2
Формат : AC-3
Формат/Информация : Audio Coding 3
Расширение режима : CM (complete main)
Параметр Endianness формата : Big
Идентификатор кодека : A_AC3
Продолжительность : 2 ч. 2 м.
Вид битрейта : Постоянный
Битрейт : 192 Кбит/сек
Каналы : 2 канала
Расположение каналов : Front: L R
Частота : 48,0 КГц
Битовая глубина : 16 бит
Метод сжатия : С потерями
Размер потока : 168 Мбайт (2%)
Заголовок : Дубляж - Чистый звук
Язык : Russian
Default : Нет
Forced : Нет
Аудио #2
Идентификатор : 3
Формат : DTS
Формат/Информация : Digital Theater Systems
Идентификатор кодека : A_DTS
Продолжительность : 2 ч. 2 м.
Вид битрейта : Постоянный
Битрейт : 1510 Кбит/сек
Каналы : 6 каналов
Расположение каналов : Front: L C R, Side: L R, LFE
Частота : 48,0 КГц
Битовая глубина : 24 бит
Метод сжатия : С потерями
Размер потока : 1,29 Гбайт (17%)
Заголовок : Оригинал
Язык : English
Default : Нет
Forced : Нет
Текст
Идентификатор : 4
Формат : UTF-8
Идентификатор кодека : S_TEXT/UTF8
Идентификатор кодека/Информация : UTF-8 Plain Text
Язык : Russian
Default : Да
Forced : Нет
Меню
00:00:00.000 : en:Chapter 01
00:04:52.417 : en:Chapter 02
00:11:47.415 : en:Chapter 03
00:15:56.205 : en:Chapter 04
00:24:39.769 : en:Chapter 05
00:29:00.321 : en:Chapter 06
00:35:35.716 : en:Chapter 07
00:41:45.336 : en:Chapter 08
00:47:28.929 : en:Chapter 09
00:52:04.538 : en:Chapter 10
00:57:24.983 : en:Chapter 11
01:01:17.799 : en:Chapter 12
01:10:43.405 : en:Chapter 13
01:13:47.423 : en:Chapter 14
01:19:03.697 : en:Chapter 15
01:25:57.694 : en:Chapter 16
01:33:39.280 : en:Chapter 17
01:42:26.431 : en:Chapter 18
01:49:10.710 : en:Chapter 19
01:58:14.462 : en:Chapter 20

Скриншоты

Релиз от:
[Профиль] [ЛС]
Кто просматривает тему:

Показать сообщения:    

Текущее время: Сегодня 18:59

Часовой пояс: GMT



Вы не можете начинать темы
Вы не можете отвечать на сообщения
Вы не можете редактировать свои сообщения
Вы не можете удалять свои сообщения
Вы не можете голосовать в опросах
Вы не можете прикреплять файлы к сообщениям
Вы не можете скачивать файлы